» » Stand By Me Doraemon Dual Audio 2014
Language: English
Size: 1.7 GB
Rating: 4.7
Category: Anime
Votes: 510
Stand By Me Doraemon Dual Audio 2014
Files:
  • Stand By Me Doraemon (2014).mkv (1.7 GB)


Anime Tosho Home Stand By Me Doraemon 1, Complete Movie . Stand By Me Doraemon - Dual Audio (2014).

Anime Tosho Home Stand By Me Doraemon 1, Complete Movie .

This is how the life of Doraemon and Nobita begins. Will Doraemon succeed this mission and return to the 22nd century?

Unless he makes Nobita happy, Doraemon can no longer go back to the 22nd century. This is how the life of Doraemon and Nobita begins. Will Doraemon succeed this mission and return to the 22nd century?

Watch Stand by Me Doraemon (2014) full movie online free.

Watch Stand by Me Doraemon (2014) full movie online free. Synopsis: In the suburbs of Tokyo some time ago, there lived a clumsy boy about 10 years old. There appeared in front of him named Sewashi, Nobita’s descendant of four generations later from the 22nd century, and Doraemon, a 22nd century cat-type caretaker robot who helps people with its secret gadgets.

Unless he makes Nobita happy, Doraemon can no longer go back to the 22nd century. Stand by Me Doraemon (2014) Dual Audio 720p BluRay x264 950MB ESub. mkv (97. 7 MB). 97. 7 MB. Description.

Audio 1: English Audio 2: Japanese Subtitles: English General Unique ID. .

GiB Duration : 1 h 34 min Overall bit rate : 2 552 kb/s Movie name : Stand By Me Doraemon Encoded date : UTC 2016-08-07 15:30:24 Writing application : mkvmerge v. 0 ('On Every Street') 32bit built on Sep 13 2014 15:42:11 Writing library : libebml v. Download Stand By Me Doraemon 2014 Hindi Dual Audio BRRip. Tags: Stand By Me Doraemon hindi 300MB BRRip,Stand By Me Doraemon 2014 Hindi Dual Audio 300MB BRRip,Stand By Me Doraemon Hindi Dual Audio 300MB.

Stand by Me Doraemon (スタンド・バイ・ミー ドラえもん) is a 2014 Japanese 3D computer animated science fiction comedy film based on the Doraemon manga series and directed by Ryūichi Yagi and Takashi Yamazaki. It was released on 8 August 2014. It is the highest-grossing film of the Doraemon franchise. Bang Zoom! Entertainment premiered an English-dubbed version of the film at the Tokyo International Film Festival on 24 October 2014.

Stand By Me Doraemon (STAND BY ME ドラえもん) is a 2014 Japanese 3D computer animated anthology film based on the Doraemon manga series and directed by Takashi Yamazaki and Ryūichi Yagi. It was first released on August 8, 2014 in Japan. Bang Zoom! Entertainment premiered an English-dubbed version of the film at the Tokyo International Film Festival on October 24, and in Catalan at the La festa dels súpers 2014 in October 25-26. Another English dub was shown in cinemas in the Philippines

got a copy of the English Dubbed version of the movie on the Japanese iTunes store, ripped the audio and added it to a BDrip so both audio and video are high quality.
Audio 1: English
Audio 2: Japanese
Subtitles: English
General
Unique ID : 233983596591668214017761338120156816932 (0xB00799FD06D8A1BA958D3D51794D2624)
Complete name : G:AnimeMoviesStand By Me Doraemon Stand By Me Doraemon .mkv
Format : Matroska
Format version : Version 4 / Version 2
File size : 1.68 GiB
Duration : 1 h 34 min
Overall bit rate : 2 552 kb/s
Movie name : Stand By Me Doraemon
Encoded date : UTC 2016-08-07 15:30:24
Writing application : mkvmerge v7.2.0 ('On Every Street') 32bit built on Sep 13 2014 15:42:11
Writing library : libebml v1.3.0 + libmatroska v1.4.1
Attachments : digimon-GonSensei.ttf / dragon_b_GonSensei.ttf / framd.ttf / framdit.ttf
Video
ID : 1
Format : AVC
Format/Info : Advanced Video Codec
Format profile : [email protected]
Format settings, CABAC : Yes
Format settings, ReFrames : 5 frames
Codec ID : V_MPEG4/ISO/AVC
Duration : 1 h 34 min
Bit rate : 2 236 kb/s
Width : 1 280 pixels
Height : 720 pixels
Display aspect ratio : 16:9
Frame rate mode : Constant
Frame rate : 23.976 (23976/1000) FPS
Color space : YUV
Chroma subsampling : 4:2:0
Bit depth : 8 bits
Scan type : Progressive
Bits/(Pixel*Frame) : 0.101
Stream size : 1.47 GiB (88%)
Writing library : x264 core 146 r2538kMod 121396c
Encoding settings : cabac=1 / ref=5 / deblock=1:0:0 / analyse=0x3:0x133 / me=umh / subme=9 / psy=1 / fade_compensate=0.00 / psy_rd=1.00:0.00 / mixed_ref=1 / me_range=24 / chroma_me=1 / trellis=2 / 8x8dct=1 / cqm=0 / deadzone=21,11 / fast_pskip=0 / chroma_qp_offset=-2 / threads=7 / lookahead_threads=1 / sliced_threads=0 / nr=0 / decimate=0 / interlaced=0 / bluray_compat=0 / constrained_intra=0 / fgo=0 / bframes=6 / b_pyramid=2 / b_adapt=2 / b_bias=0 / direct=3 / weightb=1 / open_gop=0 / weightp=2 / keyint=240 / keyint_min=24 / scenecut=40 / intra_refresh=0 / rc_lookahead=60 / rc=crf / mbtree=1 / crf=19.0000 / qcomp=0.60 / qpmin=0 / qpmax=69 / qpstep=4 / ip_ratio=1.40 / aq=1:0.50
Language : Japanese
Default : Yes
Forced : No
Audio #1
ID : 2
Format : AAC
Format/Info : Advanced Audio Codec
Format profile : LC
Codec ID : A_AAC
Duration : 1 h 34 min
Bit rate : 126 kb/s
Channel(s) : 2 channels
Channel positions : Front: L R
Sampling rate : 44.1 kHz
Frame rate : 43.066 FPS (1024 spf)
Compression mode : Lossy
Stream size : 84.8 MiB (5%)
Language : English
Default : Yes
Forced : No
Audio #2
ID : 3
Format : AAC
Format/Info : Advanced Audio Codec
Format profile : LC
Codec ID : A_AAC
Duration : 1 h 34 min
Bit rate : 187 kb/s
Channel(s) : 2 channels
Channel positions : Front: L R
Sampling rate : 48.0 kHz
Frame rate : 46.875 FPS (1024 spf)
Compression mode : Lossy
Delay relative to video : 9 ms
Stream size : 126 MiB (7%)
Language : Japanese
Default : No
Forced : No
Text
ID : 4
Format : ASS
Codec ID : S_TEXT/ASS
Codec ID/Info : Advanced Sub Station Alpha
Duration : 1 h 29 min
Bit rate : 80 b/s
Count of elements : 1094
Compression mode : Lossless
Stream size : 53.0 KiB (0%)
Language : English
Default : No
Forced : No
Menu
00:00:00.000 : en:Chapter 1
00:06:36.375 : en:Chapter 2
00:15:42.545 : en:Chapter 3
00:19:24.434 : en:Chapter 4
00:28:42.741 : en:Chapter 5
00:41:08.153 : en:Chapter 6
00:47:21.025 : en:Chapter 7
00:53:40.112 : en:Chapter 8
00:58:12.426 : en:Chapter 9
01:05:54.137 : en:Chapter 10
01:10:01.050 : en:Chapter 11
01:15:52.026 : en:Chapter 12
01:21:20.688 : en:Chapter 13
01:27:41.819 : en:Chapter 14
01:30:00.666 : en:Chapter 15

Images:

Related at Stand By Me Doraemon :
© 2019 www.gphi.it | Contacts | DMCA | Privacy Policy