» » Walt Disney Monsters Inc 2001 BRRip AC3 H264-MarGelaTu Eng Ro
Language: English
Size: 1.4 GB
Rating: 4.4
Category: Anime
Votes: 211
Walt Disney Monsters Inc 2001 BRRip AC3 H264-MarGelaTu Eng Ro
Files:
Cover_sub_info
  • Monsters_Inc-front.jpg (1.2 MB)
  • INFO.txt (2.2 KB)
  • Walt Disney.Monsters.Inc.2001 [Eng_Ro] BRRip.AC3.H264-MarGelaTu.mkv (1.4 GB)


txt (. KB). Walt Disney.

txt (. Feel free to leave one

You cannot download any of those files from here. john wick 3 eng 0s, pichchekkista 3s, title: Real Time With Bill Maher Plus Overtime S16 3s, title: The Life & Times of Tim S03E12 3s, helloween 2s, title: Lucas Davenport Novels 6-10 2s, malayalam 4s, kortney kane 0s, young+wicked+vengeance 2s, the salt 2010 eng 3s.

Details for this torrent. 0 Subtitles : English, Soft coded (Muxed).

Monsters, Inc - Monsters e Co (2001) H264 italian english Ac3-5 1 sub ita-MIRCrew Posted by robbyrs in Movies . Walt Disney Monsters Inc 2001 Eng Ro BRRip AC3 H264-MarGelaTu Posted by margelaturau in Anime Anime. 64/x264. 0. 1. Monsters Inc (2001)BRRip 480p H264 ResourceRG by bigjbrizzle1 Posted by bigjbrizzle1 in Movies .

Monsters, Inc. is a 2001 American computer-animated comedy film produced by Pixar Animation Studios and distributed by Walt Disney Pictures

Monsters, Inc. is a 2001 American computer-animated comedy film produced by Pixar Animation Studios and distributed by Walt Disney Pictures. Featuring the voices of John Goodman, Billy Crystal, Steve Buscemi, James Coburn, and Jennifer Tilly, the film was directed by Pete Docter in his directorial debut, and executive produced by John Lasseter and Andrew Stanton

Download or watch online Monsters, Inc. 2001 Torrent - An adventure cartoon from the studio . An adventure cartoon from the studio Walt Disney Pictures tells about two monsters - Mike and Sally, living in a town called Monstropolis.

Download or watch online Monsters, Inc. 2001 Torrent - An adventure cartoon from the studio Walt Disney Pictures tells about two monsters - Mike and Sally, living in a town called Monstropolis. They are completely different, but this does not prevent them from making friends. Mike is a one-eyed little monster who is not at all scary, but he struggles to show himself.

Walt Disney World Swan Hotel. More Great Accommodations. Walt Disney World Official Hotels: Disney Springs Resort Area. Four Seasons Resort Orlando at Walt Disney World Resort. Walt Disney World Official Hotels: Bonnet Creek. Walt Disney World Gateway Hotels.

If you must download and send. Keep active torrents for other! Thanks
Se si scarica devi inviare. Mantenere torrents attivi per altri! Grazie
Daca descarci trebuie sa trimiti. Pastreaza torrentul activ si pentru alti! Mersi

Walt Disney.Monsters.Inc.2001 [Eng_Ro] BRRip.AC3.H264-MarGelaTu.mkv - http://www.imdb.com/title/tt0198781/
-
Source: Monsters.Inc.2001.1080p.Bluray.x264.Codres (Tnx)
Format : Matroska
File size : 1.44 GiB
Duration : 1h 32mn
Overall bit rate : 2 246 Kbps
Video #1
ID : 1
Format : AVC
Format/Info : Advanced Video Codec
Format profile : [email protected]
Format settings, CABAC : Yes
Format settings, ReFrames : 5 frames
Muxing mode : Container [email protected]
Codec ID : V_MPEG4/ISO/AVC
Duration : 1h 31mn
Bit rate : 1 401 Kbps
Width : 1 280 pixels
Height : 688 pixels
Display aspect ratio : 1.860
Frame rate : 23.976 fps
Resolution : 24 bits
Colorimetry : 4:2:0
Scan type : Progressive
Bits/(Pixel*Frame) : 0.066
Stream size : 921 MiB (62%)
Writing library : x264 core 79
Audio #2
ID : 2
Format : AC-3
Format/Info : Audio Coding 3
Codec ID : A_AC3
Duration : 1h 32mn
Bit rate mode : Constant
Bit rate : 640 Kbps
Channel(s) : 6 channels
Channel positions : Front: L C R, Surround: L R, LFE
Sampling rate : 48.0 KHz
Stream size : 421 MiB (28%)
Language : English
Audio #3
ID : 3
Format : MPEG Audio
Format version : Version 1
Format profile : Layer 3
Codec ID : A_MPEG/L3
Codec ID/Hint : MP3
Duration : 1h 32mn
Bit rate mode : Constant
Bit rate : 160 Kbps
Channel(s) : 2 channels
Sampling rate : 48.0 KHz
Resolution : 16 bits
Stream size : 105 MiB (7%)
Writing library : LAME3.98
Language : Romanian

Images:

Related at Walt Disney Monsters Inc 2001 BRRip AC3 H264-MarGelaTu:
© 2019 www.gphi.it | Contacts | DMCA | Privacy Policy