» » One Piece 637 mkv HD 720p ENG SUBBED GWC
Language: Japanese
Size: 77.3 MB
Rating: 4.1
Category: Anime
Votes: 816
One Piece 637 mkv HD 720p ENG SUBBED GWC
Files:
  • One Piece 637 [HD 720p] [ENG SUBBED] [GWC].mkv (77.3 MB)


STORYLINE : It was a time when pirates ruled the seas. Several bands of pirates were battling over the great hidden treasure, One Piece, which was left by the now legendary pirate captain, Gold Roger.

STORYLINE : It was a time when pirates ruled the seas. There was a young boy who admired the pirates, his name was Monkey D. Luffy. One day, he mistakenly eats the devil's fruit and turns himself into a rubber human being.

For each visitor to our Web page, our Web server automatically recognizes only the consumer’s domain name, but not the e-mail address (where possible). We collect the IP address and domain name and e-mail address (where possible) of visitors to our Web page, the e-mail addresses of those who communicate with us via e-mail. The information we collect is used to improve the content of our Web page, used to notify consumers about updates to our Web site

Watch full One Piece Season 19 Episode 132 English Subbed full HD online. Please bookmark this domain and UNBLOCK on us ADBLOCK!!! We recieve too many complaints regarding to broken videos.

Watch full One Piece Season 19 Episode 132 English Subbed full HD online. If you are using an ADblock you probably won't be able to watch in HD and sometimes you will get errors like "No video with supported format and MIME type found". This is a bug of Adblock not our fault!! Please turn off your Adblocks to watch it without any trouble. One Piece Episode 914 English Subbed.

One Piece - Episode 663: Luffy Astonished! The Man Who Inherits Ace's Will!

One Piece - 663 .mkv (8. 4 MB). Download.

Watch One Piece HD Free online NO AD at Kawaiifu. His last words before his death revealed the existence of the greatest treasure in the world, One Piece. It was this revelation that brought about the Grand Age of Pirates, men who dreamed of finding One Piece-which promises an unlimited amount of riches and fame-and quite possibly the pinnacle of glory and the title of the Pirate King. Enter Monkey D. Luffy, a 17-year-old boy who defies your standard definition of a pirate.

ne+Piece+637+%5BHD+720p%5D+%5BENG+SUBBED%5D+%5BGWC%5D.

One Piece episode 296 English Dubbed. You Are Watching One Piece Episode 913 English Sub, Download One Piece Episode 913 Sub In High Quality Or HD At watchonepiece. Watch All One Piece Episodes Here. One Piece episode 476 English Dubbed. One Piece episode 374 Subbed. One Piece Episode 752 Subbed. One Piece Episode 565 English Dubbed. One Piece episode 167 English Dubbed. One Piece episode 166 English Dubbed. One Piece episode 352 Subbed. One Piece episode 377 Subbed. One Piece episode 168 English Dubbed. One Piece episode 446 Subbed.

mkv is being hosted on d. pload8. This file is of MKV file format. Are you sure you want to report the file On. iece. mkv reported successfully, action will be taken soon.

One Piece 637 [HD 720p] [ENG SUBBED] [GWC]

STORYLINE :
It was a time when pirates ruled the seas. Several bands of pirates were battling over the great hidden treasure, One Piece, which was left by the now legendary pirate captain, Gold Roger. There was a young boy who admired the pirates, his name was Monkey D. Luffy. One day, he mistakenly eats the devil's fruit and turns himself into a rubber human being.
Ten years have passed since that incident. Luffy sets out to sail all alone. He sets out to become a great pirate captain and that's when his great adventure begins. "I'm going to be the Pirate King! I'm going to get One Piece!".





FOLLOW ON FACEBOOK :





General
Format : Matroska
File size : 77.3 MiB
Duration : 20mn 34s
Overall bit rate mode : Variable
Overall bit rate : 525 Kbps
Writing application : mkvmerge v6.8.0 ('Theme for Great Cities')
Video
Format : AVC
Format profile : [email protected]
Format settings, CABAC : Yes
Format settings, ReFrames : 10 frames
Duration : 20mn 34s
Bit rate : 459 Kbps
Width : 1 280 pixels
Height : 720 pixels
Display aspect ratio : 16:9
Frame rate : 29.970 fps
Stream size : 67.5 MiB (87%)
Title : One Piece 637 [HD 720p] [ENG SUBBED] [GWC]
Audio
Format : Vorbis
Duration : 20mn 34s
Bit rate mode : Variable
Channel(s) : 2 channels
Sampling rate : 44.1 KHz
Stream size : 8.24 MiB (11%)
Writing library : aoTuV 20110424
Text
Format : UTF-8
Title : [GWC]
Language : English

Images:
http://i.imgur.com/l26mJd6.jpg|http://s20.postimg.org/l0qsjtqex/ailscreenscib.png|http://img163.imageshack.us/img163/8710/54100788659511547411.gif|http://img513.imageshack.us/img513/7533/5r0w.jpg|http://img163.imageshack.us/img163/8710/54100788659511547411.gif|http://s21.postimg.org/d7ezolr5j/facebook_logo.png|http://img651.imageshack.us/img651/8905/saythanks.gif|http://imageshack.us/a/img27/5276/i57.png|http://img651.imageshack.us/img651/8905/saythanks.gif|http://s20.postimg.org/yqc6oob95/MEDII.jpg

Related at One Piece 637 mkv:
© 2019 www.gphi.it | Contacts | DMCA | Privacy Policy