» » Blood+ Season 4 480p Cursator Blood Plus Ep 39-50
Language: Japanese
Size: 576.0 MB
Rating: 4.5
Category: Anime
Votes: 523
Blood+ Season 4 480p Cursator Blood Plus Ep 39-50
Files:
  • Blood+ Ep 39.mp4 (56.4 MB)
  • Blood+ Ep 49.mp4 (50.8 MB)
  • Blood+ Ep 46.mp4 (49.1 MB)
  • Blood+ Ep 40.mp4 (48.9 MB)
  • Blood+ Ep 42.mp4 (48.3 MB)
  • Blood+ Ep 50.mp4 (48.2 MB)
  • Blood+ Ep 48.mp4 (47.6 MB)
  • Blood+ Ep 43.mp4 (46.9 MB)
  • Blood+ Ep 45.mp4 (46.9 MB)
  • Blood+ Ep 41.mp4 (46.5 MB)
  • Blood+ Ep 47.mp4 (45.4 MB)
  • Blood+ Ep 44.mp4 (39.4 MB)
Screenshots
  • Blood+ 3.png (378.9 KB)
  • Blood+ 5.png (316.1 KB)
  • Blood+ 4.png (303.7 KB)
  • Blood+ 2.png (292.1 KB)
  • Blood+ 1.png (257.5 KB)


All the episode of Blood+ (Blood Plus) Season 3 (Ep 26-38) at 480p Video quality. Files: Blood+ Ep 3. p4 (5. MB).

All the episode of Blood+ (Blood Plus) Season 3 (Ep 26-38) at 480p Video quality. Blood+ Ep 4. p4 (4. Blood+ Ep 5. p4 (3. Screenshots. Blood+ . ng (37. KB).

Blood+ Episode 50. Report.

Chiroptera are immortal creatures that feed off blood and can change their form and disguise themselves as human beings. Red Shield has being fighting to exterminate them for years, but needs help. In modern-day Okinawa Japan, Saya Otonashi is a high-school girl living peacefully with her family even though she has no memory of her life except for the past year. It is her power and her destiny to stop the violent Chiroptera if she remembers how to fight only she can help the Red Shield.

Title: Blood-C English: BLOOD-C Synonyms: Blood-C Japanese: Ã�ラッドシー Type: Tv Total: 12 Status: Completed Aired: Jul 8, 2011 to. .EP 39 7 years ago dubbed. EP 4 7 years ago dubbed. EP 3 7 years ago dubbed.

Title: Blood-C English: BLOOD-C Synonyms: Blood-C Japanese: Ã�ラッドシー Type: Tv Total: 12 Status: Completed Aired: Jul 8, 2011 to Sep 30, 2011 Premiered: Summer 2011 Genres: Action, Horror, School, Supernatural, Vampire Duration: 23 min. per e. EP 38 7 years ago dubbed.

to Blood+ (Blood Plus) Season 4 (Ep 39-50) 480p Anime Anime. org Blood+ (Blood Plus) Season 4 (Ep 39-50) 480p Video TV shows.

All the episode of Blood+ (Blood Plus) Season 3 (Ep 26-38) at 480p Video quality.
Please seed after you download :)
-
Info
-
General

Format : MPEG-4
Format profile : Base Media
Codec ID : isom
File size : 62.5 MiB
Duration : 23mn 55s
Overall bit rate mode : Variable
Overall bit rate : 365 Kbps
Video

ID : 1
ID : 1
Format : AVC
Format/Info : Advanced Video Codec
Format profile : [email protected]
Format settings, CABAC : Yes
Format settings, ReFrames : 16 frames
Codec ID : avc1
Codec ID/Info : Advanced Video Coding
Duration : 23mn 55s
Bit rate mode : Variable
Bit rate : 330 Kbps
Maximum bit rate : 3 689 Kbps
Width : 512 pixels
Height : 384 pixels
Display aspect ratio : 4:3
Frame rate mode : Constant
Frame rate : 29.970 fps
Color space : YUV
Chroma subsampling : 4:2:0
Bit depth : 8 bits
Scan type : Progressive
Bits/(Pixel*Frame) : 0.056
Stream size : 56.5 MiB (90%)
Writing library : x264 core 60
Audio
-
ID : 2
Format : AAC
Format/Info : Advanced Audio Codec
Format profile : HE-AACv2 / HE-AAC / LC
Codec ID : 40
Duration : 23mn 55s
Bit rate mode : Variable
Bit rate : 32.2 Kbps
Maximum bit rate : 36.7 Kbps
Channel(s) : 2 channels / 1 channel / 1 channel
Channel positions : Front: L R / Front: C / Front: C
Sampling rate : 48.0 KHz / 48.0 KHz / 24.0 KHz
Compression mode : Lossy
Stream size : 5.52 MiB (9%)

Story

Under the care of her adoptive family, Saya Otonashi has been living the life of an anemic amnesiac, but otherwise ordinary schoolgirl. However, her happy life is shattered when she is attacked by a Chiropteran, learning that she is the only one who can defeat them. Armed with her katana, Saya embarks on a journey with her family, allies, and her chevalier, Haji, to rid the world of the Chiropteran threat and rediscover her identity. The course of the journey reveals the background history of the Chiropterans and Saya's very deep past, which extends into the mid-19th century.
The series is initially set in September 2005 Okinawa City (Koza), on Okinawa Island, near the US Kadena Air Base. In the course of the series, Saya visits locations across the world, fighting enemy chiropteran and searching for her origins.

Screenshots






-
Thank you for downloading.
Enjoy watching :)
And Request more anime at
__________________________
[email protected]
___________________
You can also find me on Facebook at
">http://facebook.com/cursator
Thank you :)

Images:
http://img202.imageshack.us/img202/7852/blood1b.png|http://img213.imageshack.us/img213/7387/blood2g.png|http://img15.imageshack.us/img15/7287/blood3k.png|http://img547.imageshack.us/img547/9110/blood4.png|http://img841.imageshack.us/img841/5333/blood5.png

Related at Blood+ Season 4 480p :
© 2019 www.gphi.it | Contacts | DMCA | Privacy Policy