» » Crusher Joe - The Movie BDRip 720p - H264 - Ita Eng Jap Aac - SoftSub Eng
Language: Italian
Size: 4.7 GB
Rating: 4.3
Category: Anime
Votes: 168
Crusher Joe - The Movie BDRip 720p - H264 - Ita Eng Jap Aac - SoftSub Eng
Files:
Crusher Joe - The Movie - [BDRip 720p - Ita Eng Jap Aac - SoftSub Eng] Cover DVD
  • Cover.jpg (1,006.1 KB)
  • DVD.jpg (393.0 KB)
  • Crusher Joe - The Movie - [BDRip 720p - Ita Eng Jap Aac - SoftSub Eng].mkv (4.7 GB)


Do? To Onrain -? dinaru Suk? ru-?) is a Japanese animated film of 2017 based on the light novel series Sword Art Online by Reki Kawahara.

Do? To Onrain -? dinaru Suk? ru-?) is a Japanese animated film of 2017 based on the light novel series Sword Art Online by Reki Kawahara. The film, an original story of the writer, was produced, after being announced at the Dengeki Bunko Fall Festival in 2015, from A-1 Pictures and directed by Tomohiko It ?, with music by Yuki Kajiura. In Japan, it was shown in cinemas on 18 February 2017, simultaneously with Germany, in North America on 9 March, while in Italy it was broadcast to the cinema by Dynit and Nexo Digital on 13 and 14 June 2017

HEVC main (x265), 1920 x 1080 (Movie), 1440 x 1080 (OVA)Audio - Japanese AAC, English AC3 (Movie), Japanese & English AC3 (OVA)Subtitles - English PGS (Softsub) If you like this release, please take the time out to vote for it on anidb & please help seed for th. .

HEVC main (x265), 1920 x 1080 (Movie), 1440 x 1080 (OVA)Audio - Japanese AAC, English AC3 (Movie), Japanese & English AC3 (OVA)Subtitles - English PGS (Softsub) If you like this release, please take the time out to vote for it on anidb & please help seed for the community. Thank you! Tracker(s).

Скачать с помощью Mediaget. com/Into The West 1992 720p BluRay H264 AAC-RARBG. All categories Applications Music Movies TV Books Games Graphics Other Video Courses XXX. Day. Week. 1 day ago Office 2019 KMS Activator Ultimate .

If you wish to support us please don't block our Ads!! . Crayon Shin-chan Movie 22: Gachinko! Gyakushuu no Robo To-chan English Subbed Cyborg 009 MOVİE English Subbed.

If you wish to support us please don't block our Ads!! Is the video too slow? .

movies All video latest This Just In Prelinger Archives Democracy Now! Occupy Wall Street TV NSA Clip Library. ark:/13960/t7xm31j8w.

Watch full Crusher Joe: The Movie English Dubbed online full HD. Anime movies Crusher Joe: The Movie English Dubbed online for free in HD. Crushers: intergalactic Jacks-of-All-Trades who will take on any assignment for the right price

Watch full Crusher Joe: The Movie English Dubbed online full HD. Crushers: intergalactic Jacks-of-All-Trades who will take on any assignment for the right price. Crusher Joe heads a small team of these outer space troubleshooters that includes the cyborg Talos, the beautiful Alfin, and the obligatory kid sidekick Ricky. A routine assignment escorting a cryogenically frozen heiress to a medical facility goes awry when the girl goes missing and Joe and his team are left holding the bag.

Shin Godzilla 1080p H264 JAP + ENG + ITA AC3 2CH Audio MIRCrew. Sakasama no Patema - Patema Inverted (2013) BD 720p h264 AAC 2CH Stereo Jap Audio & 2xCzech+Eng Subtitles.

com Crusher Joe - The Movie (720p, ., en,it,ja). com Crusher Joe - The Movie - Anime. org Crusher Joe - The Movie - Other. 1 day. torrentdownloads. me Crusher Joe - The Movie - Anime.

Added 3 months ago in Movies - Highres Movies Downloaded 0 time. Captive State (2019). Movie: Captive State. 18. 6 KB. Related Torrents.

Subtitles (Untitled) English srt free download. Large database of subtitles for movies, TV series and anime

Subtitles (Untitled) English srt free download. Large database of subtitles for movies, TV series and anime.

Crusher Joe - The Movie [BDRip 720p - H264 - Ita Eng Jap Aac - SoftSub Eng]
.: Trama :.
Joe è a capo di un gruppo di "crusher", avventurieri mercenari spaziali che prendono in carico qualsiasi missioni purché rientri nei limiti della legalità.
Il nome "crusher" è derivato dal compito che assunsero nei primi periodi dell'esplorazione spaziale, che era quello di distruggere gli asteroidi.
Compiti immorali o illegali sono tabù, e qualsiasi crusher che dovesse accettarne uno viene bandito dal resto del gruppo.
Naturalmente, questo vincolo rappresenta un problema per i clienti loschi che cercano di ingannare i crusher ad accettare incarichi illeciti.
Infatti questi soggetti sanno che una volta che i crusher accettano un incarico, sono tenuti ad onorarlo fino in fondo.
Nell'universo, il gruppo di Crusher Dan e del suo successore Crusher Joe ha una reputazione straordinaria, e questo gli tira addosso numerose rivalità ed invidie.
Proprio un incarico poco pulito diventa fonte di mille difficoltà per Joe e compagni.
Per dimostrare che le accuse di pirateria sono infondate, dovranno affrontare la banda del crudele Big Murphy, tra inseguimenti intergalattici, conflitti a fuoco, incontri con animali impensabili… il tutto condito con una generosa dose di umorismo.
Tuffatevi nell’universo di Yoshikasu Yasuhiko (storico character design di Gundam e autore del recente Origin), che costella di fulminee apparizioni del suoi personaggi anche questo Crusher Joe, magistralmente animato per il cinema, dove incontrerete Char e Haro (Gundam), e anche le Dirty Pair, sarcastica apparizione sullo schermo di un futuristico drive-in...
.: Locandina :.

.: Scheda :.
Titolo originale: Crusher Joe (クラッシャージョウ Kurasshā Jō)
Anno: 12 marzo 1983
Genere: Avventura, Azione, Fantascienza, Thriller
Studio: Studio Nue, Sunrise
Distribuzione: VVVVID
Numero episodi: unico (Film)
Durata approssimativa: 125 minuti
.: Screenshot :.

.: Dati tecnici del file :.
General
Unique ID : 187364065537019161220884749493553326227 (0x8CF501A586D921C7A8CBCF96C603E893)
Complete name : Crusher Joe - The Movie - [BDRip 720p - Ita Eng Jap Aac - SoftSub Eng].mkv
Format : Matroska
Format version : Version 4 / Version 2
File size : 4.69 GiB
Duration : 2 h 12 min
Overall bit rate : 5 076 kb/s
Movie name : Crusher Joe - The Movie - Mux By MPT
Encoded date : UTC 2017-05-17 14:47:49
Writing application : mkvmerge v9.6.0 ('Slave To Your Mind') 64bit
Writing library : libebml v1.3.4 + libmatroska v1.4.5
Video
ID : 1
Format : AVC
Format/Info : Advanced Video Codec
Format profile : High [email protected]
Format settings, CABAC : Yes
Format settings, ReFrames : 16 frames
Codec ID : V_MPEG4/ISO/AVC
Duration : 2 h 12 min
Bit rate : 4 469 kb/s
Width : 960 pixels
Height : 720 pixels
Display aspect ratio : 4:3
Frame rate mode : Constant
Frame rate : 23.976 (24000/1001) FPS
Color space : YUV
Chroma subsampling : 4:2:0
Bit depth : 10 bits
Scan type : Progressive
Bits/(Pixel*Frame) : 0.270
Stream size : 4.13 GiB (88%)
Title : H264 Hi10P 720p
Writing library : x264 core 148 r2721kMod 72d53ab
Encoding settings : cabac=1 / ref=16 / deblock=1:-1:-1 / analyse=0x3:0x133 / me=umh / subme=10 / psy=1 / fade_compensate=0.00 / psy_rd=1.00:0.15 / mixed_ref=1 / me_range=24 / chroma_me=1 / trellis=2 / 8x8dct=1 / cqm=0 / deadzone=21,11 / fast_pskip=0 / chroma_qp_offset=-3 / threads=18 / lookahead_threads=4 / sliced_threads=0 / nr=0 / decimate=1 / interlaced=0 / bluray_compat=0 / constrained_intra=0 / fgo=0 / bframes=16 / b_pyramid=2 / b_adapt=2 / b_bias=0 / direct=3 / weightb=1 / open_gop=0 / weightp=2 / keyint=250 / keyint_min=23 / scenecut=40 / intra_refresh=0 / rc_lookahead=60 / rc=crf / mbtree=1 / crf=17.0000 / qcomp=0.80 / qpmin=0 / qpmax=81 / qpstep=4 / ip_ratio=1.40 / aq=2:1.00
Language : Japanese
Default : Yes
Forced : No
Traccia audio #1
ID : 2
Format : AAC
Format/Info : Advanced Audio Codec
Format profile : LC
Codec ID : A_AAC
Duration : 2 h 12 min
Bit rate : 196 kb/s
Channel(s) : 2 channels
Channel positions : Front: L R
Sampling rate : 48.0 kHz
Frame rate : 46.875 FPS (1024 spf)
Compression mode : Lossy
Stream size : 186 MiB (4%)
Title : Italiano
Language : Italian
Default : Yes
Forced : No
Traccia audio #2
ID : 3
Format : AAC
Format/Info : Advanced Audio Codec
Format profile : LC
Codec ID : A_AAC
Duration : 2 h 12 min
Bit rate : 196 kb/s
Channel(s) : 2 channels
Channel positions : Front: L R
Sampling rate : 48.0 kHz
Frame rate : 46.875 FPS (1024 spf)
Compression mode : Lossy
Stream size : 185 MiB (4%)
Title : Inglese
Language : English
Default : No
Forced : No
Traccia audio #3
ID : 4
Format : AAC
Format/Info : Advanced Audio Codec
Format profile : LC
Codec ID : A_AAC
Duration : 2 h 12 min
Bit rate : 196 kb/s
Channel(s) : 2 channels
Channel positions : Front: L R
Sampling rate : 48.0 kHz
Frame rate : 46.875 FPS (1024 spf)
Compression mode : Lossy
Stream size : 186 MiB (4%)
Title : Giapponese
Language : Japanese
Default : No
Forced : No
Text #1
ID : 5
Format : ASS
Codec ID : S_TEXT/ASS
Codec ID/Info : Advanced Sub Station Alpha
Duration : 5 s 0 ms
Bit rate : 32 b/s
Count of elements : 1
Compression mode : Lossless
Stream size : 20.0 Bytes (0%)
Title : No sub
Default : Yes
Forced : No
Text #2
ID : 6
Format : PGS
Muxing mode : zlib
Codec ID : S_HDMV/PGS
Codec ID/Info : Picture based subtitle format used on BDs/HD-DVDs
Duration : 2 h 12 min
Bit rate : 14.4 kb/s
Count of elements : 2313
Stream size : 13.7 MiB (0%)
Title : Inglese
Language : English
Default : No
Forced : No
Menu
00:00:00.000 : :1
00:03:40.345 : :2
00:06:21.673 : :3
00:10:22.914 : :4
00:24:50.072 : :5
00:36:19.052 : :6
00:40:27.800 : :7
00:52:44.953 : :8
00:57:40.999 : :9
01:12:42.024 : :10
01:15:56.969 : :11
01:19:31.016 : :12
01:26:56.670 : :13
01:42:28.142 : :14
01:46:40.436 : :15
01:51:38.358 : :16
01:58:00.615 : :17
02:06:37.799 : :18
02:09:02.360 : :19

Images:
http://i.imgur.com/NS7OkyB.png|http://i.imgur.com/omzPx6D.jpg

Related at Crusher Joe - The Movie :
© 2019 www.gphi.it | Contacts | DMCA | Privacy Policy