» » One Piece - 634 mp4 HD 720p ENG SUBBED GWC
Language: Japanese
Size: 88.5 MB
Rating: 4.1
Category: Anime
Votes: 910
One Piece - 634 mp4 HD 720p ENG SUBBED GWC
Files:
  • One Piece - 634 [HD 720p] [ENG SUBBED] [GWC].mp4 (88.5 MB)


Watch One Piece English Subbed Online English Subbed full episodes for Free. If you are using an ADblock you probably won't be able to watch in HD and sometimes you will get errors like "No video with supported format and MIME type found". This is a bug of Adblock not our fault!!

Watch One Piece English Subbed Online English Subbed full episodes for Free. Streaming One Piece English Subbed Anime series in HD quality. This is a bug of Adblock not our fault!! Please turn off your Adblocks to watch it without any trouble. One Piece English Subbed. Plot Summary: Before he was executed, the legendary Pirate King Gold Roger revealed that he had hidden the treasure One Piece somewhere in the Grand Line.

Video Format : AVC Format profile : [email protected]

Release Date : 2019-08-09 Genres : Animation, Action, Adventure One Piece: Stampede is a stand-alone film that celebrates the anime's 20th Anniversary and takes place outside the canon of the "One Piece" TV series.

ly/30KPZtM Release Date : 2019-08-09 Genres : Animation, Action, Adventure One Piece: Stampede is a stand-alone film that celebrates the anime's 20th Anniversary and takes place outside the canon of the "One Piece" TV series. 720p/1080p!! HD One Piece: Stampede (2019) Watch FUll Movie Online Subs.

You are watching One Piece Episode 634 Online at Animegg. Select a mirror and stream One Piece Episode 634 Subbed & Dubbed in HD. High Quality Anime Online at Animegg.

Watch One Piece HD Free online NO AD at Kawaiifu. His last words before his death revealed the existence of the greatest treasure in the world, One Piece. It was this revelation that brought about the Grand Age of Pirates, men who dreamed of finding One Piece-which promises an unlimited amount of riches and fame-and quite possibly the pinnacle of glory and the title of the Pirate King. Enter Monkey D. Luffy, a 17-year-old boy who defies your standard definition of a pirate.

Home One Piece English Subbed One Piece Episode 634 English Subbed. Watch One Piece Episode English Subbed Online at onepiece360. Streaming in high quality and Download anime episodes for free

Home One Piece English Subbed One Piece Episode 634 English Subbed. One Piece Episode 634 English Subbed. by admin February 23, 2014. Streaming in high quality and Download anime episodes for free. Watch One Piece Episode in High HD Quality online on ww. nepiece360. You Are watching One Piece Episode. Episode 634 in the TV Anime Series One Piece.

The following Anime One Piece Episode 873 English Subbed has been released.

You Are Watching One Piece Episode 913 English Sub, Download One Piece Episode 913 Sub In High Quality Or HD At watchonepiece. Watch All One Piece Episodes Here. One Piece Episode 913 Watch One Piece 913 Watch OP 913. Subbed Episodes.

One Piece - 634 [HD 720p] [ENG SUBBED] [GWC]

It was a time when pirates ruled the seas. Several bands of pirates were battling over the great hidden treasure, One Piece, which was left by the now legendary pirate captain, Gold Roger. There was a young boy who admired the pirates, his name was Monkey D. Luffy. One day, he mistakenly eats the devil's fruit and turns himself into a rubber human being.
Ten years have passed since that incident. Luffy sets out to sail all alone. He sets out to become a great pirate captain and that's when his great adventure begins. "I'm going to be the Pirate King! I'm going to get One Piece!".




FOLLOW ON FACEBOOK :





General
Format : MPEG-4
Format profile : Base Media
File size : 88.5 MiB
Duration : 20mn 38s
Overall bit rate mode : Variable
Overall bit rate : 600 Kbps
Video
Format : AVC
Format profile : [email protected]
Format settings, CABAC : Yes
Format settings, ReFrames : 11 frames
Duration : 20mn 38s
Bit rate : 541 Kbps
Maximum bit rate : 3 221 Kbps
Width : 1 280 pixels
Height : 720 pixels
Display aspect ratio : 16:9
Frame rate mode : Variable
Frame rate : 29.970 fps
Stream size : 79.8 MiB (90%)
Title : One Piece - 634 [HD 720p] [ENG SUBBED] [GWC]
Language : English
Audio
Format : AAC
Format profile : HE-AAC / LC
Duration : 20mn 37s
Bit rate mode : Variable
Channel(s) : 2 channels / 2 channels
Channel positions : Front: L R / Front: L R
Sampling rate : 44.1 KHz / 44.1 KHz
Stream size : 7.97 MiB (9%)
Language : Japanese
Text
Format : Timed Text
Duration : 20mn 32s
Language : English

Images:
http://i.imgur.com/l26mJd6.jpg|http://s20.postimg.org/l0qsjtqex/ailscreenscib.png|http://img163.imageshack.us/img163/8710/54100788659511547411.gif|http://img543.imageshack.us/img543/4559/dpnb.jpg|http://img163.imageshack.us/img163/8710/54100788659511547411.gif|http://s21.postimg.org/d7ezolr5j/facebook_logo.png|http://img651.imageshack.us/img651/8905/saythanks.gif|http://imageshack.us/a/img16/3442/ncax.gif|http://img651.imageshack.us/img651/8905/saythanks.gif|http://s20.postimg.org/yqc6oob95/MEDII.jpg

Related at One Piece - 634 mp4:
Comments 1
Truthcliff
Thanks !!rnrnIf possible try to do Hunter x Hunter in 720p :)
© 2019 www.gphi.it | Contacts | DMCA | Privacy Policy