» » Ga-Rei Zero 480p Cursator Complete Ep 1-12 Subbed
Language: Japanese
Size: 335.0 MB
Rating: 4.1
Category: Anime
Votes: 252
Ga-Rei Zero 480p Cursator Complete Ep 1-12 Subbed
Files:
  • Ga Rei Zero Ep 01.mp4 (33.4 MB)
  • Ga Rei Zero Ep 06.mp4 (29.3 MB)
  • Ga Rei Zero Ep 04.mp4 (29.2 MB)
  • Ga Rei Zero Ep 12.mp4 (28.8 MB)
  • Ga Rei Zero Ep 11.mp4 (28.5 MB)
  • Ga Rei Zero Ep 08.mp4 (28.4 MB)
  • Ga Rei Zero Ep 10.mp4 (27.9 MB)
  • Ga Rei Zero Ep 02.mp4 (27.5 MB)
  • Ga Rei Zero Ep 05.mp4 (26.4 MB)
  • Ga Rei Zero Ep 09.mp4 (25.4 MB)
  • Ga Rei Zero Ep 03.mp4 (24.8 MB)
  • Ga Rei Zero Ep 07.mp4 (24.1 MB)
Screenshots
  • Ga-rei zero 5.png (318.2 KB)
  • Ga-rei zero 4.png (256.7 KB)
  • Ga-rei zero 1.png (236.5 KB)
  • Ga-rei zero 2.png (214.0 KB)
  • Ga-rei zero 3.png (182.8 KB)
  • Ga-rei zero 6.png (146.1 KB)


Torrent added: 2013-06-21 05:06. All The Episodes of anime " Ga-Rei Zero ' at 480p video quality :) Please seed after you download.

Torrent added: 2013-06-21 05:06. if not working, try downloading torrent using.

Ga-Rei Zero 1 English Subbed

Ga-Rei Zero 1 English Subbed. Anime Episode guide, Ga-Rei Zero 1 English Subbed Above Aoi The Japanese Ministry of Defense's Paranormal Disaster Countermeasure Headquarters is summoned to eliminate Kashas in the Greater Tokyo Area by deploying its 1st and 4th Divisions into combat under MOD instructions after they were reported by local police of a supernatural presence, with the situation under SDPH jurisdiction. Initial efforts by soldiers of the 1st Section were being overwhelmed by demons in the highway before Toru and Natsuki of the 4th Division intervened to save the remaining survivors.

An anime-only prequel to the Ga-Rei manga by Segawa Hajime, serialised in Monthly Shounen Ac. ill you kill someone you love because of love?An elite squadron trained to combat supernatural forces is called in to investigate reports of invisible monsters terrorising Tokyo, but their. ill you kill someone you love because of love?An elite squadron trained to combat supernatural forces is called in to investigate reports of invisible monsters terrorising Tokyo, but their mission is complicated by the interference of a rogue exorcist.

All The Episodes of anime " Ga-Rei Zero ' at 480p video quality :) Please seed after you . She wields Ga-rei, a spirit beast that kills these spirits. Kensuke's spiritual awareness and his attraction to Kagura compels him to follow her to the agency, where he is recruited to fight the supernatural.

All The Episodes of anime " Ga-Rei Zero ' at 480p video quality :) Please seed after you download.

Type: tv. Total: 12. Status: completed. EP 1 8 years ago dubbed. Dubbed Anime is an anime streaming video site where you can watch anime in English Dubbed & Subbed. Aired: Oct 6, 2008 to Dec 22, 2008. Premiered: Fall 2008. Duration: 23 min. per ep. Views: 3952.

All characters are upper case, and there are no zeros (0) and ones (1) in the above image. Apparently bots aren't as good as humans at this game. Image Verification Passed.

to Ga-Rei Zero (Complete Ep 1-12 Subbed) 480p Anime Anime. com Ga-Rei Zero Anime. org Ga-Rei Zero (Complete Ep 1-12) 480p Video TV shows. info Ga-Rei-Zero-(Complete-Ep-1-12)-480p- Anime. to G -Rei Zero (Complete Ep 1-12 Subbed) 480p Anime. com Ga-Rei Zero (Complete Ep 1-12) 480p TV. 4 days. ch Ga-Rei-Zero-(Complete-Ep-1-12)-480p- Other.

480p Lokal480p, Gvid, Mp4upload, Yourupload. 720p Gbhd, Lokalhd, Gvidhd, Youruploadhd. 1080p Lokal1080p, Gvid1080p, Yourupload1080. Jangan lupa nonton update anime lainnya ya. Ga-Rei: Zero Episode 12 Subtitle Indonesia, Watch Streaming Ga-Rei: Zero Episode 12 Subtitle Indonesia, Download Ga-Rei: Zero Episode 12 Subtitle Indonesia, Animeindo.

Streaming Anime Ga-Rei Zero 1 English Subbed full episode in H. Ga-Rei Zero 2 English Subbed. 1. Big Hero 6: The Series Season 2 Episode 18 - The Present. Douluo Dalu Season 2 Episode 55 English Subbed. Bokutachi wa Benkyou ga Dekinai Season 2 Episode 10 English Subbed. Kono Oto Tomare! Season 2 Episode 10 English Subbed.

English: Ga-Rei-Zero. Synonyms: Garei: Zero. TV - 12 Episodes (Finished Airing) Winter 2011. Akame ga Kill! TV - 24 Episodes (Finished Airing) Summer 2014.

All The Episodes of anime " Ga-Rei Zero ' at 480p video quality :)
Please seed after you download.

Info

General
-
Format : MPEG-4
Format profile : Base Media
Codec ID : isom
File size : 33.4 MiB
Duration : 23mn 36s
Overall bit rate mode : Variable
Overall bit rate : 198 Kbps
Video
-
D : 1
Format : AVC
Format/Info : Advanced Video Codec
Format profile : [email protected]
Format settings, CABAC : Yes
Format settings, ReFrames : 8 frames
Codec ID : avc1
Codec ID/Info : Advanced Video Coding
Duration : 23mn 36s
Bit rate : 130 Kbps
Maximum bit rate : 1 108 Kbps
Width : 640 pixels
Height : 360 pixels
Display aspect ratio : 16:9
Frame rate mode : Constant
Frame rate : 23.976 fps
Color space : YUV
Chroma subsampling : 4:2:0
Bit depth : 8 bits
Scan type : Progressive
Bits/(Pixel*Frame) : 0.024
Stream size : 22.0 MiB (66%)
Writing library : x264 core 119 r2106 07efeb4
Audio
-
ID : 2
Format : AAC
Format/Info : Advanced Audio Codec
Format profile : LC
Codec ID : 40
Duration : 23mn 36s
Bit rate mode : Variable
Bit rate : 64.0 Kbps
Maximum bit rate : 105 Kbps
Channel(s) : 2 channels
Channel positions : Front: L R
Sampling rate : 48.0 KHz
Compression mode : Lossy
Delay relative to video : 83ms
Stream size : 10.8 MiB (32%)
-
Story
-
Life is depressing and normal for high-schooler Kensuke Nimura - except that he can see spirits. This ability generally hinders him more than it helps him, until he encounters Kagura Tsuchimiya while being pursued by evil spirits. They accidentally kiss and fight off the spirits together. A few days later, she transfers into his class. Kagura is an agent of a government agency that defends the public against supernatural enemies. She wields Ga-rei, a spirit beast that kills these spirits. Kensuke's spiritual awareness and his attraction to Kagura compels him to follow her to the agency, where he is recruited to fight the supernatural.

Screenshots








Thank you for downloading :)
Please request more anime at
____________________________
[email protected]
____________________

Images:
http://img38.imageshack.us/img38/9383/gareizero1.png|http://img252.imageshack.us/img252/2348/gareizero2.png|http://img211.imageshack.us/img211/2270/gareizero3.png|http://img546.imageshack.us/img546/5766/gareizero4.png|http://img839.imageshack.us/img839/9166/gareizero5.png|http://img822.imageshack.us/img822/9922/gareizero6.png

Related at Ga-Rei Zero 480p :
© 2019 www.gphi.it | Contacts | DMCA | Privacy Policy