» » Gosick S1E14 720p EngDub
Language: English
Size: 91.6 MB
Rating: 4.9
Category: Anime
Votes: 520
Gosick S1E14 720p EngDub
Files:
  • Gosick S01E14.mkv (91.6 MB)


Gosick Episode 13 English DubbedGosick Episode 15 English Dubbed. High School Prodigies Have It Easy Even In Another World Episode 4 English Dubbed.

Gosick Episode 13 English DubbedGosick Episode 15 English Dubbed. No Guns Life Episode 6 English Dubbed. My Teen Romantic Comedy SNAFU Episode 11 English Dubbed. My Teen Romantic Comedy SNAFU Episode 7 English Dubbed. Afterschool Dice Club Episode 7 English Dubbed. Afterschool Dice Club Episode 6 English Dubbed. Cautious Hero: The Hero Is Overpowered but Overly Cautious Episode 6 English Dubbed.

Watch full Gosick Episode 14 English Dubbed streaming online

Watch full Gosick Episode 14 English Dubbed streaming online. Gosick Episode 14 English dub online for free in HD. A Malicious Frill Denounces a Farting Newt Victorique is dragged by her teacher to her classroom and is introduced to the rest of her classmates. Avril tries to bring her attention but she gets angry on her instead. Kujo demands Victorique to apologize to her, and when she refuses, he sets with Avril to keep investigating the Leviathan case without her help. Meanwhile Victorique has an encounter with Brian Roscoe, a friend of the victim's, on the top of the clock tower.

Gosick Episode 1. Light Of. GOSICK takes place in 1924 in a small, made-up European country of Sauville

Gosick Episode 1. Light Off. Next. GOSICK takes place in 1924 in a small, made-up European country of Sauville. The story centers on Kazuya Kujo, the third son of a Japanese Imperial soldier, who is a transfer student to St. Marguerite Academy, where urban legends and horror stories are all the rage. There he meets Victorique, a mysterious yet beautiful and brilliant girl who never comes to class and spends her days reading the entire content of the library or solving mysteries that even detectives can’t solve.

Anime Tosho Home Gosick Unsorted Files . Gosick 1-12 (English Dub). Gosick English Dub. Tracker(s).

Catalan German English Spanish, Mexican Spanish French Hungarian Indonesian Icelandic Italian Japanese Korean Norwegian Bokmål Dutch . Category: Anime - English-translated.

Catalan German English Spanish, Mexican Spanish French Hungarian Indonesian Icelandic Italian Japanese Korean Norwegian Bokmål Dutch Portuguese Romanian Russian Swedish Thai Chinese Traditional Chinese.

Gosick Episode 14 English Dub. Gosick Episode 13 English Dub. Gosick Episode 12 English Dub.

Gosick S1E14 720p (EngDub) Download

Quote:

Kujo and Avril explore one of the school's towers and Avril figures that it is related to the legend of Leviathan, an alchemist who lived there decades before. Victorique stumbles on a pop-up book containing a cryptic message aledgely from Leviathan himself and when a death occurs at the top of the tower, she decides to investigate by herself.

..::File Specs::..
General
Format                                   : Matroska
Format version                           : Version 4 / Version 2
File size                                : 93.5 MiB
Duration                                 : 24 min 19 s
Overall bit rate                         : 526 kb/s
Video
ID                                       : 1
Format                                   : AVC
Format/Info                              : Advanced Video Codec
Format profile                           : [email protected]
Format settings, CABAC                   : Yes
Format settings, ReFrames                : 6 frames
Codec ID                                 : V_MPEG4/ISO/AVC
Duration                                 : 24 min 19 s
Bit rate                                 : 485 kb/s
Width                                    : 1 280 pixels
Height                                   : 720 pixels
Display aspect ratio                     : 16:9
Frame rate mode                          : Constant
Frame rate                               : 23.976 (24000/1001) FPS
Color space                              : YUV
Chroma subsampling                       : 4:2:0
Bit depth                                : 8 bits
Scan type                                : Progressive
Bits/(Pixel*Frame)                       : 0.022
Stream size                              : 84.3 MiB (92%)
Writing library                          : x264 core 148 r2708 86b7198
Default                                  : Yes
Forced                                   : No
Color range                              : Limited
Audio
ID                                       : 2
Format                                   : AAC
Format/Info                              : Advanced Audio Codec
Format profile                           : LC
Codec ID                                 : A_AAC
Duration                                 : 24 min 19 s
Bit rate                                 : 39.5 kb/s
Channel(s)                               : 2 channels
Channel positions                        : Front: L R
Sampling rate                            : 48.0 kHz
Frame rate                               : 46.875 FPS (1024 spf)
Compression mode                         : Lossy
Delay relative to video                  : -21 ms
Stream size                              : 6.87 MiB (8%)
================================================================
Seed Seed Seed Seed Seed Seed Seed Seed Seed Seed Seed Seed Seed
To direct download or Watch Online this file, Visit.
www.DigiMaza.com
Seed Seed Seed Seed Seed Seed Seed Seed Seed Seed Seed Seed Seed
================================================================

Images:
https://s4.postimg.org/yxnvmtw3x/gosickbanner.jpg

Related at Gosick S1E14 720p :
© 2019 www.gphi.it | Contacts | DMCA | Privacy Policy