» » The Lion Guard S02E19 The Kilio Valley Fire 1080p x264 Phun Psyz
Language: English
Size: 211.9 MB
Rating: 4.3
Category: Anime
Votes: 624
The Lion Guard S02E19 The Kilio Valley Fire 1080p x264 Phun Psyz
Files:
  • The Lion Guard S02E19 The Kilio Valley Fire 1080p x264 Phun Psyz.mp4 (211.9 MB)


ТОР: Легенда викингов 3D, Мультфильм в HD - Продолжительность: 1:19:37 Детский Клуб™ Recommended for you.

ТОР: Легенда викингов 3D, Мультфильм в HD - Продолжительность: 1:19:37 Детский Клуб™ Recommended for you. 1:19:37. Елена - Принцесса Авалора Елена и тайна Авалора Спецвыпуск Мультфильм Disney - Продолжительность: 1:00:32 Узнавайка Recommended for you. 1:00:32.

Browse all latest episodes of the lion guard s02e19 – the kilio valley fire. The Lion Guard S02E19 – The Kilio Valley Fire. Watch The Lion Guard S02E19 – The Kilio Valley Fire online live for free.

Watch full The Lion Guard Season 2 Episode 19 full HD online. Important!: Our Domain Changed!! Dear visitors we have changed our domain name. Please bookmark this domain and UNBLOCK on us ADBLOCK!!! We recieve too many complaints regarding to broken videos. If you are using an ADblock you probably won't be able to watch in HD and sometimes you will get errors like "No video with supported format and MIME type found"

The Lion Guard S02E20 Undercover Kinyonga 1080p x264 Phun Psyz. Posted in TV. 18. 3 MB.

The Lion Guard S02E20 Undercover Kinyonga 1080p x264 Phun Psyz.

The Kilio Valley Fire is the is the forty-fifth episode of The Lion Guard and the nineteenth episode of Season 2. After Scar 's army set fire to the Kilio Valley. After Scar 's army set fire to the Kilio Valley, the misplaced elephants are forced to the Pride Lands and create chaos amongst the other herds. The Lion Guard is in Kilio Valley, desperately trying to put out a fire. After extinguishing the blaze, they announce that Ma Tembo's Herd can finally return home.

The Lion Guard Season 2 Episode 19 – The Kilio Valley Fire. Watch The Lion Guard Season 2 Episode 19 – The Kilio Valley Fire Online with High Quality. If you wish to support us please don't block our Ads!!

The Lion Guard Season 2 Episode 19 – The Kilio Valley Fire. Category : The Lion Guard.

The Kilio Valley Fire. Fire from the Sky. Reactions. After Scar's minions set fire to the Kilio Valley, the misplaced elephants are forced to the Pride Lands and create chaos amongst the other herds. 2 сезон, 19 серия Вышла 4 Апреля 2018 TV-Y 25 мин. Disney Junior.

to The Lion Guard S02E19 The Kilio Valley Fire 1080p x264 Phun Psyz. co The Lion Guard S02E19 The Kilio Valley Fire 1080p x264 Phun Psyz Television. eu The Lion Guard S02E19 The Kilio Valley Fire 1080p x264 Phun Psyz.

The Lion Guard S02E19-E20 1080p WEB-DL H264-LAZY.

www.imdb.com/title/tt5991510/?ref_=ttep_ep19
When escorting a wise tortoise, Kongwe, to a meeting with King Simba, Fuli learns a valuable lesson in patience.
Source: Lazy (847 MiB)

Format : MPEG-4
Format profile : Base Media / Version 2
Codec ID : mp42 (isom/iso2/avc1/mp41)
File size : 212 MiB
Duration : 22 min 35 s
Overall bit rate mode : Variable
Overall bit rate : 1 312 kb/s
Video
ID : 1
Format : AVC
Format/Info : Advanced Video Codec
Format profile : [email protected]
Format settings : CABAC / 8 Ref Frames
Format settings, CABAC : Yes
Format settings, RefFrames : 8 frames
Codec ID : avc1
Codec ID/Info : Advanced Video Coding
Duration : 22 min 35 s
Bit rate : 1 145 kb/s
Width : 1 920 pixels
Height : 1 080 pixels
Display aspect ratio : 16:9
Frame rate mode : Variable
Frame rate : 23.976 (24000/1001) FPS
Minimum frame rate : 23.974 FPS
Maximum frame rate : 23.981 FPS
Color space : YUV
Chroma subsampling : 4:2:0
Bit depth : 8 bits
Scan type : Progressive
Bits/(Pixel*Frame) : 0.023
Stream size : 185 MiB (87%)
Writing library : x264 core 148 r2708 86b7198
Audio
ID : 2
Format : AAC
Format/Info : Advanced Audio Codec
Format profile : LC
Codec ID : mp4a-40-2
Duration : 22 min 35 s
Bit rate mode : Variable
Bit rate : 160 kb/s
Channel(s) : 2 channels
Channel positions : Front: L R
Sampling rate : 48.0 kHz
Frame rate : 46.875 FPS (1024 SPF)
Compression mode : Lossy
Stream size : 25.9 MiB (12%)
Title : Stereo / Stereo
Language : English
Text
Language : English
Default : Yes
Forced : No

Images:
https://extraimage.net/images/2018/04/21/e250558d85ca8c517948a730e96990d0.md.png|https://extraimage.net/images/2018/04/21/e159b4961245359dafa1df99136ada35.md.png|https://extraimage.net/images/2018/04/21/883bdf8c441abd573faeeeaaf597042c.md.png|https://extraimage.net/images/2018/04/21/34dc1ac029be2ee37624e1aa0180545f.md.png|https://extraimage.net/images/2018/04/21/68a55f68b1479b05023e6289afdd3ec4.md.png

Related at The Lion Guard S02E19 The Kilio Valley Fire 1080p x264 Phun Psyz:
© 2019 www.gphi.it | Contacts | DMCA | Privacy Policy