» » One Piece - 651 mp4 HD 720p ENG SUBBED GWC
Language: Japanese
Size: 79.0 MB
Rating: 4.2
Category: Anime
Votes: 106
One Piece - 651 mp4 HD 720p ENG SUBBED GWC
Files:
  • One Piece - 651 [HD 720p] [ENG SUBBED] [GWC].mp4 (79.0 MB)


For each visitor to our Web page, our Web server automatically recognizes only the consumer’s domain name, but not the e-mail address (where possible).

For each visitor to our Web page, our Web server automatically recognizes only the consumer’s domain name, but not the e-mail address (where possible). We collect the IP address and domain name and e-mail address (where possible) of visitors to our Web page, the e-mail addresses of those who communicate with us via e-mail. The information we collect is used to improve the content of our Web page, used to notify consumers about updates to our Web site

Watch One Piece HD Free online NO AD at Kawaiifu. His last words before his death revealed the existence of the greatest treasure in the world, One Piece.

Watch One Piece HD Free online NO AD at Kawaiifu. It was this revelation that brought about the Grand Age of Pirates, men who dreamed of finding One Piece-which promises an unlimited amount of riches and fame-and quite possibly the pinnacle of glory and the title of the Pirate King. Enter Monkey D. Luffy, a 17-year-old boy who defies your standard definition of a pirate.

Release Date : 2019-08-09 Genres : Animation, Action, Adventure One Piece: Stampede is a stand-alone film that celebrates the anime's 20th Anniversary and takes place outside the canon of the "One Piece" TV series.

ly/30KPZtM Release Date : 2019-08-09 Genres : Animation, Action, Adventure One Piece: Stampede is a stand-alone film that celebrates the anime's 20th Anniversary and takes place outside the canon of the "One Piece" TV series. 720p/1080p!! HD One Piece: Stampede (2019) Watch FUll Movie Online Subs. 2 months ago 7,944 views.

Bila Video Tidak Dapat Diputar, Gunakan Video Mirror Dibawah Ini. SD. Status: Sub Indo ANIMEINDO.

One Piece 651 Subtitle Indonesia Download One piece 651 Subtitle Indonesia Watch Anime One Piece 651 Terbaru Streaming Video One Piece 651 Subtitle Indonesia Nonton Film One Animeindo OnePiece 651 Subtitle Indonesia MKV MP4 3GP One Piece 651 Subtitle Indonesia MP. Bila Video Tidak Dapat Diputar, Gunakan Video Mirror Dibawah Ini. HD.

Home One Piece English Subbed One Piece Episode 651 English Subbed. Watch One Piece Episode English Subbed Online at onepiece360. Streaming in high quality and Download anime episodes for free

Home One Piece English Subbed One Piece Episode 651 English Subbed. One Piece Episode 651 English Subbed. by admin June 29, 2014. Streaming in high quality and Download anime episodes for free. Watch One Piece Episode in High HD Quality online on ww. nepiece360. You Are watching One Piece Episode. Episode 651 in the TV Anime Series One Piece.

Watch One Piece Episode 651 (English Subbed) HD Online. One Piece English Sub - Episode 651 See Al. .Watch via Mobile Download Episode 651 in MP4 Video format Player2 Next Episode Prev Episode.One Piece English Sub. Fall 1999. Tip: you can change the video quality if you're facing with AUTO PAUSING issue (due to slow connection).

One Piece - 651 [HD 720p] [ENG SUBBED] [GWC]

STORYLINE :
It was a time when pirates ruled the seas. Several bands of pirates were battling over the great hidden treasure, One Piece, which was left by the now legendary pirate captain, Gold Roger. There was a young boy who admired the pirates, his name was Monkey D. Luffy. One day, he mistakenly eats the devil's fruit and turns himself into a rubber human being.
Ten years have passed since that incident. Luffy sets out to sail all alone. He sets out to become a great pirate captain and that's when his great adventure begins. "I'm going to be the Pirate King! I'm going to get One Piece!".





FOLLOW ON FACEBOOK :






General
Format : MPEG-4
Format profile : Base Media
File size : 79.0 MiB
Duration : 20mn 37s
Overall bit rate mode : Variable
Overall bit rate : 536 Kbps
Video
Format : AVC
Format profile : [email protected]
Format settings, CABAC : Yes
Format settings, ReFrames : 10 frames
Duration : 20mn 37s
Bit rate : 468 Kbps
Maximum bit rate : 2 896 Kbps
Width : 1 280 pixels
Height : 720 pixels
Display aspect ratio : 16:9
Frame rate : 29.970 fps
Stream size : 69.0 MiB (87%)
Title : One Piece - 651 [HD 720p] [ENG SUBBED] [GWC]
Language : English
Audio
Format : AAC
Format profile : HE-AAC / LC
Duration : 20mn 37s
Bit rate mode : Variable
Channel(s) : 2 channels
Sampling rate : 44.1 KHz / 22.05 KHz
Stream size : 9.44 MiB (12%)
Language : Japanese
Text
Format : Timed Text
Title : [GWC]
Language : English

Images:
http://i.imgur.com/l26mJd6.jpg|http://i.imgur.com/VZlL078.jpg|http://i.imgur.com/hfRzOJw.gif|http://i.imgur.com/xnnWt9C.jpg|http://i.imgur.com/hfRzOJw.gif|http://s21.postimg.org/d7ezolr5j/facebook_logo.png|http://i.imgur.com/FQ6bMc5.gif|http://i.imgur.com/9llPOMh.gif|http://i.imgur.com/FQ6bMc5.gif|http://s20.postimg.org/yqc6oob95/MEDII.jpg

Related at One Piece - 651 mp4:
© 2019 www.gphi.it | Contacts | DMCA | Privacy Policy