» » Battle Girls - Season 01 - Time Paradox - Episode 02 - X264:720 AAC:128KBs BR-Rip ECCY
Language: English
Size: 300.1 MB
Rating: 4.3
Category: Anime
Votes: 518
Battle Girls - Season 01 - Time Paradox - Episode 02 - X264:720 AAC:128KBs BR-Rip ECCY
Files:
  • Battle Girls - Season 01 ~ Time Paradox - Episode 02 - A Confused Maiden.mp4 (300.1 MB)


S01. E02. 720. AAC. ECCY. Files: Battle Girls - Season 01 ~ Time Paradox - Episode 02 - A Confused Maiden.

Home Video Battle Girls - Season 01 ~ Time Paradox - Episode 02 - A Confused Maiden ~ X264:720.

Home Video Battle Girls - Season 01 ~ Time Paradox - Episode 02 - A Confused Maiden ~ X264:72. ome Video Battle Girls - Season 01 ~ Time Paradox - Episode 02 - A Confused Maiden ~ X264:72. nformazione Generale. Battle Girls - Season 01 ~ Time Paradox - Episode 02 - A Confused Maiden.

Time Paradox - Episode 02 - A Confused Maiden Video ID : 1 Format : AVC Format/Info : Advanced Video Codec Format profile : Format settings, CABAC : Yes Format settings, ReFrames : 4 frames.

General Complete name : Battle Girls - Season 01 ~ Time Paradox - Episode 02 - A Confused Maiden Video ID : 1 Format : AVC Format/Info : Advanced Video Codec Format profile : Format settings, CABAC : Yes Format settings, ReFrames : 4 frames Format settings, GOP : M 3, N 32 Codec ID : avc1 Codec ID/Info : Advanced Video Coding Duration : 23mn 42s Bit rate mode : Variable Bit rate : 1 635 Kbps Width : 1 280 pixels Height : 720 pixels Display aspect.

Battle Girls Time Paradox S01 E02 720 AAC ECCY. Release name: Battle Girls - Season 01 ~ Time Paradox - Episode 02 ~ X264:720 AAC:128KBs BR-Rip ECCY. Trackers: udp://tracker.

720 br rip results 1-2 from 2. torrent name. Eskade: The Submission. just now. 720 br rip. Battle Girls - Season 01 ~ Time Paradox - Episode 01 ~ X264:720 AAC:128KBs BR-Rip ECCY Posted by Ecelon in Anime Anime. V-Ray. Bloom mgk. amateur 720p.

Hans Zimmer - Time ( Cyberdesign Remix ) - Продолжительность: 9:17 MrLINO83 Recommended for you. 9:17.

Watching this episode also works on mobile, so you can download Battle Girls: Time Paradox Episode 2 in high quality on any device now. watch anime online.


General
Complete name : Battle Girls - Season 01 ~ Time Paradox - Episode 02 - A Confused Maiden.mp4
Format : MPEG-4
Format profile : Base Media / Version 2
Codec ID : mp42
File size : 300 MiB
Duration : 23mn 43s
Overall bit rate : 1 769 Kbps
Encoded date : UTC 2015-10-27 16:53:02
Tagged date : UTC 2015-10-27 17:14:07
Writing application : HandBrake 0.9.5 2011010300
Video
ID : 1
Format : AVC
Format/Info : Advanced Video Codec
Format profile : [email protected]
Format settings, CABAC : Yes
Format settings, ReFrames : 4 frames
Format settings, GOP : M=3, N=32
Codec ID : avc1
Codec ID/Info : Advanced Video Coding
Duration : 23mn 42s
Bit rate mode : Variable
Bit rate : 1 635 Kbps
Width : 1 280 pixels
Height : 720 pixels
Display aspect ratio : 16:9
Frame rate mode : Variable
Frame rate : 23.976 fps
Minimum frame rate : 23.419 fps
Maximum frame rate : 24.390 fps
Color space : YUV
Chroma subsampling : 4:2:0
Bit depth : 8 bits
Scan type : Progressive
Bits/(Pixel*Frame) : 0.074
Stream size : 277 MiB (92%)
Writing library : x264 core 112
Encoding settings : cabac=1 / ref=2 / deblock=1:0:0 / analyse=0x1:0x111 / me=hex / subme=6 / psy=1 / psy_rd=1.00:0.00 / mixed_ref=0 / me_range=16 / chroma_me=1 / trellis=0 / 8x8dct=0 / cqm=0 / deadzone=21,11 / fast_pskip=1 / chroma_qp_offset=-2 / threads=6 / sliced_threads=0 / nr=0 / decimate=1 / interlaced=0 / constrained_intra=0 / bframes=2 / b_pyramid=2 / b_adapt=1 / b_bias=0 / direct=1 / weightb=0 / open_gop=0 / weightp=2 / keyint=240 / keyint_min=23 / scenecut=40 / intra_refresh=0 / rc_lookahead=40 / rc=2pass / mbtree=1 / bitrate=1635 / ratetol=1.0 / qcomp=0.60 / qpmin=3 / qpmax=51 / qpstep=4 / cplxblur=20.0 / qblur=0.5 / ip_ratio=1.40 / aq=1:1.00
Encoded date : UTC 2015-10-27 16:53:02
Tagged date : UTC 2015-10-27 17:14:07
Color primaries : BT.709-5, BT.1361, IEC 61966-2-4, SMPTE RP177
Transfer characteristics : BT.709-5, BT.1361
Matrix coefficients : BT.709-5, BT.1361, IEC 61966-2-4 709, SMPTE RP177
Audio
ID : 2
Format : AAC
Format/Info : Advanced Audio Codec
Format profile : LC
Codec ID : 40
Duration : 23mn 43s
Bit rate mode : Variable
Bit rate : 128 Kbps
Maximum bit rate : 196 Kbps
Channel(s) : 2 channels
Channel positions : Front: L R
Sampling rate : 48.0 KHz
Compression mode : Lossy
Stream size : 21.7 MiB (7%)
Language : English
Encoded date : UTC 2015-10-27 16:53:02
Tagged date : UTC 2015-10-27 17:14:07
Text
ID : 3
Format : Timed text
Muxing mode : sbtl
Codec ID : tx3g
Duration : 23mn 34s
Bit rate mode : Variable
Bit rate : 12 bps
Stream size : 2.10 KiB (0%)
Language : English
Encoded date : UTC 2015-10-27 16:53:02
Tagged date : UTC 2015-10-27 17:13:48

Images:
https://yuq.me/users/21/512/p8I5OuXhy7.png

Related at Battle Girls - Season 01 - Time Paradox - Episode 02 - X264:720 AAC:128KBs BR-Rip ECCY:
© 2019 www.gphi.it | Contacts | DMCA | Privacy Policy