» » Mobile Suit Gundam The Origin I II III - OAV H264 Ita Jpn Ac3 5 1 sub Ita iCV-MIRCrew
Language: Italian
Size: 2.8 GB
Rating: 4.5
Category: Anime
Votes: 331
Mobile Suit Gundam The Origin I II III - OAV H264 Ita Jpn Ac3 5 1 sub Ita iCV-MIRCrew
Files:
Mobile Suit Gundam The Origin I -II-III.H264.ita.ipn.sub.ita.iCV-MIRCrew
  • Mobile Suit Gundam The Origin I - Blue - Eyes Casval.H264.ita.ipn.sub.ita.iCV-MIRCrew.mkv (939.8 MB)
  • Mobile Suit Gundam The Origin II - Artesia's Sorrow.H264.ita.ipn.sub.ita.iCV-MIRCrew.mkv (888.1 MB)
  • Mobile Suit Gundam The Origin III - Dawn Of Rebellion (2016).H264.ita.ipn.sub.ita.iCV-MIRCrew.mkv (1.1 GB)


No found only original release. Ormai cresciuto, il giovane Kyuta torna a Tokio mosso dal desiderio di riscoprire le sue origini

The Boy and the Beast (2015). No found only original release. Ormai cresciuto, il giovane Kyuta torna a Tokio mosso dal desiderio di riscoprire le sue origini.

No found only original release. My release is always in double track audio italian and Original audio for select it use VLC or dvd player home not use wmp. Mobile Suit Gundam The Origin I II III - OAV. Titolo originale: Kido Senshi Gundam: The Origin Nazionalità: Giappone Categoria: Serie OAV Genere: Azione Fantascienza Guerra Mecha Anno: 2015-2016 Episodi: 4. Universal Century 0068; Side 3, l'autoproclamata Repubblica Autonoma di Munzo è scossa da violenze.

It Chapter Two 2019 720p BluRay DD5 1 x264-iFT. by TahaTV 27 minutes ago. The Complete Neural Networks Bootcamp: Theory, Applications.

Pointless text/text that can be identifiable as spoliers such as "Everyone dies" or "Han shot first!" is not allowed. We are not Meme Central nor do we want to be. - If you want to discuss future episodes, we have a channel dedicated to spoilers on our Discord. While swearing is allowed (unless really excessive), do not direct it at other users.

All videos under Mobile Suit Gundam: The Origin and episodes before Mobile . High Score Girl II Episode 6Sub

All videos under Mobile Suit Gundam: The Origin and episodes before Mobile Suit Gundam: The Origin OVA 5 are EMBEDDED VIDEOS from these said sites and Mobile Suit Gundam: The Origin OVA 5 is not hosted, uploaded or owned by AniWatcher or its Server. Enjoy watching Mobile Suit Gundam: The Origin OVA 5 here at AniWatcher Anime Stream. High Score Girl II Episode 6Sub. Honzuki no Gekokujou: Shisho ni Naru Tame ni wa Shudan wo Erandeiraremasen Episode 9Sub. Hoshiai no Sora Episode 8Sub.

ch AV H264-Ita Jpn Ac3 5 1 sub Ita iCV-MIRCrew Other. eu Mobile Suit Gundam The Origin I -II-III. Be careful of what you download or face the consequences.

Suit Gundam: The Origin I - Aoi Hitomi no Casval, Kidou Senshi Gundam: The Origin, 機動戦士ガンダムTHE ORIGIN. Choose an episode below and start watching Mobile Suit Gundam: The Origin in Subbed & Dubbed HD now. Mobile Suit Gundam: The Origin Episodes.

Alternate Titles: Mobile Suit Gundam: The Origin I - Aoi Hitomi no Casval, Kidou Senshi Gundam: The Origin, 機動戦士ガンダムTHE ORIGIN. Mobile Suit Gundam: The Origin 6Episode d. Mobile Suit Gundam: The Origin 5Episode 5Subbedhdsd. Mobile Suit Gundam: The Origin 4Episode 4Subbedhdsd. Mobile Suit Gundam: The Origin 3Episode 3Subbedhdsd.

Mobile Suit Gundam: The Origin. Mobile Suit Gundam: The Origin (Japanese: 機動戦士ガンダム THE ORIGIN Hepburn: Kidō Senshi Gandamu Ji Orijin) is a manga written and illustrated by Yoshikazu Yasuhiko. It is a retelling of the story from the 1979 anime television series Mobile Suit Gundam, of which Yasuhiko was the original character designer.

Mobile Suit Gundam The Origin I II III - OAV.H264 Ita.Jpn.Ac3.5.1.sub.Ita.iCV-MIRCrew


NO FOUND ONLY ORIGINAL RELEASE


My release is always in double track audio italian and Original audio
for select it use VLC or dvd player home
not use wmp
Mobile Suit Gundam The Origin I II III - OAV



Titolo originale: Kido Senshi Gundam: The Origin
Nazionalità: Giappone
Categoria: Serie OAV
Genere: Azione Fantascienza Guerra Mecha
Anno: 2015-2016
Episodi: 4

Universal Century 0068; Side 3, l'autoproclamata Repubblica Autonoma di Munzo è scossa da violenze. Il Leader della Repubblica, il filosofo Zeon Zum Daikun, muore improvvisamente, mentre sta tenendo un'importante discorso - dedicato all'evoluzione dell'Uomo nello Spazio - e si appresta a dichiarare la totale indipendenza della Repubblica dalla Federazione

Universal Century 0068, Side 3 - The Autonomous Republic of Munzo. Zeon Zum Deikun attempts to declare complete independence of Munzo from the Earth Federation Government, while he preaches...








[spoiler]
General
Unique ID : 133871385363463147631468372283297975037 (0x64B6B0E3DB2FDEB03BDBC35004F94AFD)
Complete name : Mobile Suit Gundam The Origin III - Dawn Of Rebellion .H264.ita.ipn.sub.ita.iCV-MIRCrew.mkv
Format : Matroska
Format version : Version 2
File size : 1.05 GiB
Duration : 1h 8mn
Overall bit rate : 2 197 Kbps
Movie name : VISIT www.icv-crew.org
Encoded date : UTC 2016-11-19 10:07:30
Writing application : Lavf54.63.100
Writing library : Lavf54.63.100
Video
ID : 1
Format : AVC
Format/Info : Advanced Video Codec
Format profile : [email protected]
Format settings, CABAC : Yes
Format settings, ReFrames : 2 frames
Codec ID : V_MPEG4/ISO/AVC
Duration : 1h 8mn
Bit rate : 1 270 Kbps
Width : 720 pixels
Height : 404 pixels
Display aspect ratio : 16:9
Frame rate mode : Variable
Frame rate : 23.976 fps
Color space : YUV
Chroma subsampling : 4:2:0
Bit depth : 8 bits
Scan type : Progressive
Bits/(Pixel*Frame) : 0.182
Stream size : 617 MiB (57%)
Title : Mobile Suit Gundam The Origin III
Writing library : x264 core 130 r2273
Encoding settings : cabac=1 / ref=2 / deblock=1:0:0 / analyse=0x1:0x131 / me=hex / subme=7 / psy=1 / psy_rd=1.00:0.00 / mixed_ref=0 / me_range=16 / chroma_me=1 / trellis=1 / 8x8dct=0 / cqm=0 / deadzone=21,11 / fast_pskip=1 / chroma_qp_offset=-2 / threads=12 / lookahead_threads=2 / sliced_threads=0 / nr=0 / decimate=1 / interlaced=0 / bluray_compat=0 / constrained_intra=0 / bframes=3 / b_pyramid=0 / b_adapt=1 / b_bias=0 / direct=3 / weightb=1 / open_gop=0 / weightp=2 / keyint=230 / keyint_min=23 / scenecut=40 / intra_refresh=0 / rc_lookahead=40 / rc=2pass / mbtree=1 / bitrate=1270 / ratetol=1.0 / qcomp=0.60 / qpmin=10 / qpmax=69 / qpstep=4 / cplxblur=20.0 / qblur=0.5 / vbv_maxrate=24000 / vbv_bufsize=24000 / nal_hrd=none / ip_ratio=1.40 / aq=1:1.00
Language : Italian
Default : Yes
Forced : No
DURATION : 01:08:40.325000000
NUMBER_OF_FRAMES : 98789
NUMBER_OF_BYTES : 2647745876
_STATISTICS_WRITING_APP : mkvmerge v9.4.2 ('So High') 64bit
_STATISTICS_WRITING_DATE_UTC : 2016-11-05 07:25:37
_STATISTICS_TAGS : BPS DURATION NUMBER_OF_FRAMES NUMBER_OF_BYTES
Audio #1
ID : 2
Format : AC-3
Format/Info : Audio Coding 3
Mode extension : CM (complete main)
Codec ID : A_AC3
Duration : 1h 8mn
Bit rate mode : Constant
Bit rate : 448 Kbps
Channel(s) : 6 channels
Channel positions : Front: L C R, Side: L R, LFE
Sampling rate : 48.0 KHz
Bit depth : 16 bits
Compression mode : Lossy
Delay relative to video : 1mn 5s
Stream size : 220 MiB (20%)
Language : Italian
Default : Yes
Forced : No
DURATION : 01:08:40.363000000
NUMBER_OF_FRAMES : 386284
NUMBER_OF_BYTES : 777203408
_STATISTICS_WRITING_APP : mkvmerge v9.4.2 ('So High') 64bit
_STATISTICS_WRITING_DATE_UTC : 2016-11-05 07:25:37
_STATISTICS_TAGS : BPS DURATION NUMBER_OF_FRAMES NUMBER_OF_BYTES
Audio #2
ID : 3
Format : AC-3
Format/Info : Audio Coding 3
Mode extension : CM (complete main)
Codec ID : A_AC3
Duration : 1h 8mn
Bit rate mode : Constant
Bit rate : 448 Kbps
Channel(s) : 6 channels
Channel positions : Front: L C R, Side: L R, LFE
Sampling rate : 48.0 KHz
Bit depth : 16 bits
Compression mode : Lossy
Delay relative to video : 1mn 5s
Stream size : 220 MiB (20%)
Language : Japanese
Default : No
Forced : No
DURATION : 01:08:40.384000000
NUMBER_OF_FRAMES : 128762
NUMBER_OF_BYTES : 230741504
_STATISTICS_WRITING_APP : mkvmerge v9.4.2 ('So High') 64bit
_STATISTICS_WRITING_DATE_UTC : 2016-11-05 07:25:37
_STATISTICS_TAGS : BPS DURATION NUMBER_OF_FRAMES NUMBER_OF_BYTES
Text #1
ID : 4
Format : VobSub
Codec ID : S_VOBSUB
Codec ID/Info : The same subtitle format used on DVDs
Language : Italian
Default : No
Forced : No
DURATION : 01:08:09.620000000
NUMBER_OF_FRAMES : 764
NUMBER_OF_BYTES : 4002063
_STATISTICS_WRITING_APP : mkvmerge v9.4.2 ('So High') 64bit
_STATISTICS_WRITING_DATE_UTC : 2016-11-05 07:25:37
_STATISTICS_TAGS : BPS DURATION NUMBER_OF_FRAMES NUMBER_OF_BYTES
Text #2
ID : 5
Format : VobSub
Codec ID : S_VOBSUB
Codec ID/Info : The same subtitle format used on DVDs
Language : Italian
Default : No
Forced : No
DURATION : 01:08:09.620000000
NUMBER_OF_FRAMES : 764
NUMBER_OF_BYTES : 4002063
_STATISTICS_WRITING_APP : mkvmerge v9.4.2 ('So High') 64bit
_STATISTICS_WRITING_DATE_UTC : 2016-11-05 07:25:37
_STATISTICS_TAGS : BPS DURATION NUMBER_OF_FRAMES NUMBER_OF_BYTES
Menu
00:00:00.000 : :00:00:00.000
00:05:30.580 : :00:05:30.580
00:20:47.872 : :00:20:47.872
00:36:52.794 : :00:36:52.794
01:00:16.571 : :01:00:16.571
01:05:52.866 : :01:05:52.866
[/spoiler]

Images:
https://extraimage.net/images/2016/07/16/oCo82IVa08d8.png|http://i.imgur.com/GDNQx1Z.png|https://extraimage.net/images/2016/11/20/ec0d4d2b87e7f43466419f370a1082d5.png|http://www.userlogos.org/files/logos/Sucka/imdb_new.png|http://i.imgur.com/fGu1rKv.png|http://i.imgur.com/bFK3ggF.png|http://i.imgur.com/48xHWWH.png|http://i.imgur.com/K8bfNTy.png|https://extraimage.net/images/2016/11/20/d9605c63c6cc33d527f5432697cb600b.png|https://extraimage.net/images/2016/11/20/d55f15a8f9678212549e0015d1d47a5c.png|https://extraimage.net/images/2016/11/20/e5281fe06a29d2cb330721879f39ef56.png|https://extraimage.net/images/2016/11/20/118cd1971ccd1619b88db96936e06e48.png|https://extraimage.net/images/2016/11/20/5af4288ada227143e52d6a8bdb876785.png|https://extraimage.net/images/2016/11/20/c93419301e3a1311f7c6229145e29619.png|http://i.imgur.com/aVrMohH.png

Related at Mobile Suit Gundam The Origin I II III - OAV H264 Ita Jpn Ac3 5 1 sub Ita iCV-MIRCrew:
© 2019 www.gphi.it | Contacts | DMCA | Privacy Policy