» » Parasyte the Maxim 720p x264 -ARIZONE English Dubbed 2015
Language: English
Size: 2.1 GB
Rating: 4.7
Category: Anime
Votes: 304
Parasyte the Maxim 720p x264 -ARIZONE English Dubbed 2015
Files:
  • Episode List.txt (3.7 KB)
  • INFO.txt (7.8 KB)
  • please seed.jpg (130.0 KB)
  • ARIZONE.jpg (334.4 KB)
  • Parasyte the Maxim Episode 02 [Eng Dub] 720p ~ARIZONE.mp4 (79.0 MB)
  • Parasyte the Maxim Episode 03 [Eng Dub] 720p ~ARIZONE.mp4 (79.0 MB)
  • Parasyte the Maxim Episode 05 [Eng Dub] 720p ~ARIZONE.mp4 (85.1 MB)
  • Parasyte the Maxim Episode 04 [Eng Dub] 720p ~ARIZONE.mp4 (85.2 MB)
  • Parasyte the Maxim Episode 01 [Eng Dub] 720p ~ARIZONE.mp4 (85.2 MB)
  • Parasyte the Maxim Episode 12 [Eng Dub] 720p ~ARIZONE.mp4 (89.9 MB)
  • Parasyte the Maxim Episode 13 [Eng Dub] 720p ~ARIZONE.mp4 (89.9 MB)
  • Parasyte the Maxim Episode 11 [Eng Dub] 720p ~ARIZONE.mp4 (89.9 MB)
  • Parasyte the Maxim Episode 09 [Eng Dub] 720p ~ARIZONE.mp4 (90.0 MB)
  • Parasyte the Maxim Episode 08 [Eng Dub] 720p ~ARIZONE.mp4 (90.0 MB)
  • Parasyte the Maxim Episode 07 [Eng Dub] 720p ~ARIZONE.mp4 (90.0 MB)
  • Parasyte the Maxim Episode 24 [Eng Dub] 720p ~ARIZONE.mp4 (93.2 MB)
  • Parasyte the Maxim Episode 16 [Eng Dub] 720p ~ARIZONE.mp4 (93.2 MB)
  • Parasyte the Maxim Episode 23 [Eng Dub] 720p ~ARIZONE.mp4 (93.3 MB)
  • Parasyte the Maxim Episode 20 [Eng Dub] 720p ~ARIZONE.mp4 (93.3 MB)
  • Parasyte the Maxim Episode 18 [Eng Dub] 720p ~ARIZONE.mp4 (93.3 MB)
  • Parasyte the Maxim Episode 22 [Eng Dub] 720p ~ARIZONE.mp4 (93.3 MB)
  • Parasyte the Maxim Episode 17 [Eng Dub] 720p ~ARIZONE.mp4 (93.3 MB)
  • Parasyte the Maxim Episode 21 [Eng Dub] 720p ~ARIZONE.mp4 (93.3 MB)
  • Parasyte the Maxim Episode 19 [Eng Dub] 720p ~ARIZONE.mp4 (93.3 MB)
  • Parasyte the Maxim Episode 10 [Eng Dub] 720p ~ARIZONE.mp4 (93.3 MB)
  • Parasyte the Maxim Episode 06 [Eng Dub] 720p ~ARIZONE.mp4 (93.3 MB)
  • Parasyte the Maxim Episode 14 [Eng Dub] 720p ~ARIZONE.mp4 (93.3 MB)
  • Parasyte the Maxim Episode 15 [Eng Dub] 720p ~ARIZONE.mp4 (93.4 MB)


Watch all the episodes of Parasyte -the maxim- English Dubbed/Subbed Online in High Quality

Watch all the episodes of Parasyte -the maxim- English Dubbed/Subbed Online in High Quality. English: Parasyte -the maxim-. Synonyms: Parasite, Parasitic Beasts, Parasyte.

Parasyte the Maxim Episode 01 720p ~ARIZONE. Uploads are NOT instant, so please wait for them to be processed. Please back such statements up with reasoning to be both informative and demonstrate that you aren't just some whiney kid. Image Verification

Parasyte - the maxim - (English Dubbed). Shinichi and his Parasyte, now named "Migi," battle for control of Shinichi's arm as the number of Mincemeat Murders increases.

Parasyte - the maxim - (English Dubbed). 42016Subtitles and Closed Captions. But when an encounter with another Parasyte turns hostile, they must work together if they hope to survive. More purchase options.

You are going to Watch Parasyte -the maxim- Episode 2 English dubbed online free episodes with HQ, high quality. Stream Anime Parasyte -the maxim- Episode 2 Online English dub Devil in the Flesh. Calling his new partner 'Migi', Shinichi attempts to move on with his normal life despite his new condition, but other Parasites keep coming after them to protect their secret.

Parasyte: The Maxim English DUBBED. English dub and 720p not 1080p. All episodes, 1 - 24. 1920 x 1080p resolution. Enjoy! Get this torrent PLAY/STREAM TORRENT. ramwen at 2017-04-22 21:29 CET: English dub and 720p not 1080p.

Across the world, alien beings, known as Parasytes, fall to earth and begin possessing humans one by one with the rest of humanity none the wiser. Shinichi Izumi is one such victim. One night, a quiet invasion takes place. Across the world, alien beings, known as Parasytes, fall to earth and begin possessing humans one by one with the rest of humanity none the wiser.

Watch Parasyte -the maxim- full episodes online English Sub. Synopis: All of a sudden, they arrived: parasitic aliens that descended upon Earth and quickly infiltrated humanity by burrowing into the brains of vulnerable targets. Sixteen-year-old high school student Shinichi Izumi falls victim to one of these parasites, but it fails to take over his brain, ending up in his right hand instead.

Parasite, Parasitic Beasts, Parasyte, Parasyte -the maxim-, 寄生獣 セイの格率 (synonyms) . Based on Iwaaki Hitoshi’s science-fiction horror manga by the same name. Durarara!! (main) (Complete Batch) (720p90MB).





Parasyte the Maxim

EPISODE 1 -24 [English Dubbed]
complete
release year : 2015

Quote:

[center]
Format : MPEG-4
Format profile : Base Media
Codec ID : isom (isom/iso2/avc1/mp41)
File size : 85.1 MiB
Duration : 22mn 52s
Overall bit rate : 520 Kbps
Writing application : Lavf56.40.101

[spoiler="VIDEO / AUDIO"]

Quote:


[color="green"]

[b]Video

[/color]
Format : AVC
Format/Info : Advanced Video Codec
Format profile : [email protected]
Format settings, CABAC : Yes
Format settings, ReFrames : 6 frames
Codec ID : avc1
Codec ID/Info : Advanced Video Coding
Duration : 22mn 52s
Bit rate : 450 Kbps
Width : 1 280 pixels
Height : 720 pixels
Display aspect ratio : 16:9
Frame rate mode : Variable
Frame rate : 23.976 (24000/1001) fps
Minimum frame rate : 23.564 fps
Maximum frame rate : 24.390 fps
Color space : YUV
Chroma subsampling : 4:2:0
Bit depth : 8 bits
Scan type : Progressive
Bits/(Pixel*Frame) : 0.020
Stream size : 73.7 MiB (87%)
Writing library : x264 core 146 r2538 121396c
[color="green"]

AUDIO

[/color]
Format : AAC
Format/Info : Advanced Audio Codec
Format profile : HE-AAC / LC
Codec ID : 40
Duration : 22mn 52s
Bit rate mode : Constant
Bit rate : 64.0 Kbps
Channel(s) : 2 channels
Channel positions : Front: L R
Sampling rate : 48.0 KHz / 24.0 KHz
Frame rate : 23.438 fps (1024 spf)
Compression mode : Lossy
Stream size : 10.5 MiB (12%)
Language : English
Default : Yes
Alternate group : 1

[/spoiler][/spoiler]






Images:
http://s22.postimg.org/j03lusd4h/ARIZONE.jpg|http://s3.postimg.org/m13o4bjab/INFO_2.jpg|https://s15.postimg.org/l72y8cadn/7d31dfaf49397a8cc1e490ccedea04e21422401583_full.jpg|https://s9.postimg.org/44a52m32n/vlcsnap-2016-04-11-22h20m12s992.jpg|https://s9.postimg.org/fhwodtdlb/vlcsnap-2016-04-11-22h19m53s868.jpg|https://s9.postimg.org/fj6m78ff3/vlcsnap-2016-04-11-22h19m45s256.jpg|https://s9.postimg.org/i1sb7x15b/vlcsnap-2016-04-11-22h19m12s494.jpg|https://s30.postimg.org/sevpdu22p/01047296100867101552.jpg

Related at Parasyte the Maxim 720p x264 -ARIZONE:
Comments 1
GAZANIK
Thanks a LOts !!
© 2019 www.gphi.it | Contacts | DMCA | Privacy Policy