» » Sword Art Online 480p Cursator Complete Ep 1-25
Language: Japanese
Size: 1.3 GB
Rating: 4.8
Category: Anime
Votes: 227
Sword Art Online 480p Cursator Complete Ep 1-25
Files:
  • Sword Art Online Ep 02.mp4 (80.8 MB)
  • Sword Art Online Ep 03.mp4 (76.1 MB)
  • Sword Art Online Ep 09.mp4 (74.7 MB)
  • Sword Art Online Ep 04.mp4 (72.8 MB)
  • Sword Art Online Ep 12.mp4 (72.5 MB)
  • Sword Art Online Ep 10.mp4 (70.6 MB)
  • Sword Art Online Ep 08.mp4 (70.3 MB)
  • Sword Art Online Ep 07.mp4 (67.6 MB)
  • Sword Art Online Ep 01.mp4 (67.5 MB)
  • Sword Art Online Ep 05.mp4 (59.1 MB)
  • Sword Art Online Ep 06.mp4 (58.1 MB)
  • Sword Art Online Ep 23.mp4 (51.5 MB)
  • Sword Art Online Ep 22.mp4 (46.8 MB)
  • Sword Art Online Ep 14.mp4 (41.7 MB)
  • Sword Art Online Ep 13.mp4 (41.2 MB)
  • Sword Art Online Ep 20.mp4 (40.8 MB)
  • Sword Art Online Ep 24.mp4 (38.5 MB)
  • Sword Art Online Ep 19.mp4 (37.5 MB)
  • Sword Art Online Ep 16.mp4 (36.4 MB)
  • Sword Art Online Ep 25.mp4 (36.0 MB)
  • Sword Art Online Ep 18.mp4 (35.7 MB)
  • Sword Art Online Ep 11.mp4 (35.0 MB)
  • Sword Art Online Ep 17.mp4 (34.0 MB)
  • Sword Art Online Ep 21.mp4 (29.8 MB)
  • Sword Art Online Ep 15.mp4 (26.7 MB)
Cover
  • Sword Art Online Ep (1-19) [Cursator].jpg (1.2 MB)
Screenshots
  • Sao 5.png (391.0 KB)
  • Sao 4.png (297.5 KB)
  • Sao 2.png (244.1 KB)
  • Sao 3.png (228.3 KB)
  • Sao 1.png (148.4 KB)


I am Cursator :) An Anime uploader on torrent sites  .

Hello! I am Cursator :) An Anime uploader on torrent sites  . 25 February 2013 ·. Alright! Last exam tomorrow :D And then it's Anime all the way!!

All the episode made yet of Sword art online (Ep 1-22). In the year 2022, the Virtual reality Massive Multiplayer Online Role-Playing Game (VRMMORPG) Sword Art Online (SAO) is released

All the episode made yet of Sword art online (Ep 1-22). In the year 2022, the Virtual reality Massive Multiplayer Online Role-Playing Game (VRMMORPG) Sword Art Online (SAO) is released. With the Nerve Gear, a VR Helmet that stimulates the user's five senses via their brain, players can experience and control their in-game characters with their minds. But an unexpected event occurs on November 6, 2022 when Akihiko Kayaba, the creator of SAO, prevents the players from logging out.

DVD Japan Anime SWORD ART ONLINE: ALICIZATION VOL. 1-24 END Set Animation TB. Anime DVD TONARI NO KYUUKETSUKI-SAN Eps 1-12 END Complete Animation Box Set BB. Sword Art Online DVD Complete Ep. 1-25 End Animation All region. Anime DVD KILLING BITES Vol 1-12 END Japanese Animation Box Set New.

All the episode of Sword art online (Ep 1-25) at 480p video quality. Sword Art Online Ep (1-19). jpg (. MB). Screenshots. Sao . ng (39. KB). ng (29. ng (24. ng (22. ng (14. files.

To make matters worse, Sword Art Online is not all fun and games: if they die in Aincrad, they die in real life. Kirito must adapt to his new reality, fight for his survival, and hopefully break free from his virtual hell. English: Sword Art Online. O, SAO. Japanese: ソードアート・オンライン. Type: TV. Episode: 25. Status: Finished Airing.

Sword Art Online Complete Season 1 Collection (Episodes 1-25).

Ships from and sold by ImageAnime. Customers who viewed this item also viewed. Page 1 of 1 Start overPage 1 of 1. This shopping feature will continue to load items. Sword Art Online Complete Season 1 Collection (Episodes 1-25).

Sword Art Online (Complete Ep 1-25) 480p Cursator Posted by Cursator in Anime Anime. 0. AnimeRG Sword Art Online II (1-24 Complete Batch) 480p 10bit Eng Subbed JRR Posted by JRRstudios in Anime Anime. Sword Art Online Complete 720p HEVC x265 - BVz Posted by BVzBromidic in Anime Anime. 94. MB. BVzBromidic.

Here are some subs for the Sword Art Offline bonus clips. Source is from Sword Art Online (1080p Dual Audio FLAC).

ass Subtitles ENG: UK BD,. pgs Subtitles ENG: USA BD,. pgs Subtitles RUS: HR & Stan WarHammer,. ass Subtitles CHI: DHR&Hakugetsu,. ass Subtitles CHI: SumiSora,. ass Subtitles POR: Crunchyroll,. ass Subtitles SPA: Crunchyroll,. Subtitles ARA: Crunchyroll,. Here are some subs for the Sword Art Offline bonus clips.

Some are allies, while others are foes, like Asuna Yuuki, who commands the leading group attempting to escape from the ruthless game.

All the episode of Sword art online (Ep 1-25) at 480p video quality

IMDB

http://www.imdb.com/title/tt2256334/

Cover


-

-

-
Torrent Statistics

-
ID : 1
Format : AVC
Format/Info : Advanced Video Codec
Format profile : [email protected]
Format settings, CABAC : No
Format settings, ReFrames : 2 frames
Codec ID : avc1
Codec ID/Info : Advanced Video Coding
Duration : 24mn 30s
Bit rate mode : Variable
Bit rate : 342 Kbps
Width : 640 pixels
Height : 352 pixels
Display aspect ratio : 16:9
Frame rate mode : Variable
Frame rate : 29.970 fps
Minimum frame rate : 29.412 fps
Maximum frame rate : 30.303 fps
Color space : YUV
Chroma subsampling : 4:2:0
Bit depth : 8 bits
Scan type : Progressive
Bits/(Pixel*Frame) : 0.051
Stream size : 59.9 MiB (67%)
Writing library : x264 core 115


ID : 2
Format : AAC
Format/Info : Advanced Audio Codec
Format profile : LC
Codec ID : 40
Duration : 24mn 30s
Bit rate mode : Variable
Bit rate : 160 Kbps
Maximum bit rate : 197 Kbps
Channel(s) : 2 channels
Channel positions : Front: L R
Sampling rate : 48.0 KHz
Compression mode : Lossy
Stream size : 28.0 MiB (32%)
Language : English

Story

In the year 2022, the Virtual reality Massive Multiplayer Online Role-Playing Game (VRMMORPG) Sword Art Online (SAO) is released. With the Nerve Gear, a VR Helmet that stimulates the user's five senses via their brain, players can experience and control their in-game characters with their minds. But an unexpected event occurs on November 6, 2022 when Akihiko Kayaba, the creator of SAO, prevents the players from logging out. Akihiko issues them a challenge; if they wish to be free and log out of the game, they must reach the 100th floor of the game's tower and defeat the final boss. However, if their avatars die in game, their bodies will also die in the real world. As the game's 10,000 players try to accept their new deadly predicament, Kirito, a skilled player who tested the beta version of the game, is determined to reach the 100th floor and attain freedom. As he befriends other players along the way, including Asuna, who becomes his partner, in-game wife, and real world girlfriend. Kirito faces many obstacles and eventually discovers the true purpose of SAO.
After escaping SAO, Kirito, for a series of circumstances, takes part in other VRMMO games.










Facebook


Find Me on Facebook :)[/b]
or
[email protected]

Images:
http://img31.imageshack.us/img31/47/4ipml51354580906.jpg|http://41.imagebam.com/download/uZsc2Vv9LdglWdCAEe9S-g/19196/191952191/info.png|http://63.imagebam.com/download/uqoGGTUKGJxqviU6WrTzHQ/19196/191952197/video.png|http://torrent-stats.info/1998/34b50148.png|http://70.imagebam.com/download/GmjNa7dCiX8el9sEMWqyVA/19196/191952207/audio.png|http://70.imagebam.com/download/7VGFyO2yIfW0R5Sixnu3jg/19196/191952214/screenshots.png|http://img29.imageshack.us/img29/8249/sao1.png|http://img191.imageshack.us/img191/6633/sao2p.png|http://img502.imageshack.us/img502/1846/sao3h.png|http://img823.imageshack.us/img823/3609/sao4.png|http://img834.imageshack.us/img834/4292/sao5.png|http://webgeek.elletis.com/wp-content/uploads/facebook-music-nota.jpg

Related at Sword Art Online 480p :
© 2019 www.gphi.it | Contacts | DMCA | Privacy Policy