» » Naruto Shippuuden - 334 mkv 720p ENG-SUBBED GWC
Language: Japanese
Size: 92.7 MB
Rating: 4.8
Category: Anime
Votes: 144
Naruto Shippuuden - 334 mkv 720p ENG-SUBBED GWC
Files:
  • Naruto Shippuuden - 334 [720p] [ENG-SUBBED] [GWC].mkv (92.7 MB)


Watch full Naruto Shippuden Season 20 Episode 12 English Dubbed full HD online. Please bookmark this domain and UNBLOCK on us ADBLOCK!!! We recieve too many complaints regarding to broken videos.

Watch full Naruto Shippuden Season 20 Episode 12 English Dubbed full HD online. Naruto Shippuden Episode 425 English Dubbed online for free in HD. The Infinite Dream. If you are using an ADblock you probably won't be able to watch in HD and sometimes you will get errors like "No video with supported format and MIME type found". This is a bug of Adblock not our fault!! Please turn off your Adblocks to watch it without any trouble. Naruto Shippuden Episode 425 English Dubbed.

You can find all Naruto Shippuden Episodes English Subbed and Naruto Shippuden related content at WatchNaruto. Naruto Shippuuden Episode 334. Naruto Shippuuden Episode 335. Naruto Shippuuden Episode 336.

You can watch the Naruto and Naruto Shippuden Dubbed and Subbed Series free. Feel free to cancel before renewal to avoid charges or keep using if you like it and pay monthly subscription after month.

Naruto Shippuden English Subbed Movies. Title: Naruto Shippuden the Movie. Release Date: August 4, 2007. Naruto Shippuden Subbed Movie 2. Option 1. LIVE.

to Naruto Shippuuden - 334 .mkv Anime. com Naruto Shippuuden: 334 .mkv TV. 9 days. am Naruto Shippuuden - 334 .mkv Adult.

AAC Format profile : HE-AAC, LC Codec ID : A AAC Duration : 23mn 5s Channel(s) : 2 channels Channel positions : Front: L R Sampling rate : 4. KHz, 2. 5.

Video ID : 1 Format : AVC Format profile : Format settings, CABAC : Yes Format settings, ReFrames : 10 frames Duration : 23mn 5s Nominal bit rate : 510 Kbps Width : 1 280 pixels Height : 720 pixels Display aspect ratio : 16:9 Frame rate : 2. 76 fps Title : Naruto Shippuuden - 327 . .

Oktober 2013 Naruto Shippuden 33. KV Untuk file Med aFire setelah donlot ubah file exstension.

Stream Naruto: Shippuuden English Dubbed and Subbed online for free! . Naruto: Shippuuden Episode 334 English Sub. Naruto: Shippuuden Episode 333 English Sub. Naruto: Shippuuden Episode 332 English Sub.

All categories Anime - Anime Music Video - English-translated - ed - Raw Audio - Lossless - Lossy Literature . Naruto Shippuuden - 334.

All categories Anime - Anime Music Video - English-translated - ed - Raw Audio - Lossless - Lossy Literature - English-translated - ed - Raw Live Action - English-translated - Idol/Promotional Video - ed - Raw Pictures - Graphics - Photos Software - Applications - Games. Category: Anime - ed.

Naruto Shippuuden - 334 [720p] [ENG-SUBBED] [GWC]

Naruto Shippuuden Ep 334 - Sibling Tag Team


THUMBNAIL IMAGE :




FOLLOW ON FACEBOOK :





MEDIA INFO :

General
Format : Matroska
File size : 92.7 MiB
Duration : 23mn 9s
Overall bit rate mode : Variable
Overall bit rate : 559 Kbps
Writing application : mkvmerge v6.4.1 ('Omega Point')

Video
ID : 1
Format : AVC
Format profile : [email protected]
Format settings, CABAC : Yes
Format settings, ReFrames : 11 frames
Duration : 23mn 9s
Bit rate : 510 Kbps
Width : 1 280 pixels
Height : 720 pixels
Display aspect ratio : 16:9
Frame rate mode : Constant
Frame rate : 23.976 fps
Stream size : 81.6 MiB (88%)
Title : Naruto Shippuuden - 334 [720p] [ENG-SUBBED] [GWC]
Writing library : x264 core

Audio
ID : 2
Format : Vorbis
Duration : 23mn 9s
Bit rate mode : Variable
Channel(s) : 2 channels
Sampling rate : 44.1 KHz
Stream size : 9.28 MiB (10%)

Text
ID : 3
Format : UTF-8
Language : English
Default : Yes
Forced : No

Images:
http://img560.imageshack.us/img560/2224/narutogwccover.jpg|http://img163.imageshack.us/img163/8710/54100788659511547411.gif|http://img199.imageshack.us/img199/1286/xew5.jpg|http://img163.imageshack.us/img163/8710/54100788659511547411.gif|http://s21.postimg.org/d7ezolr5j/facebook_logo.png|http://img651.imageshack.us/img651/8905/saythanks.gif|http://imageshack.us/a/img27/5276/i57.png|http://img651.imageshack.us/img651/8905/saythanks.gif|http://imageshack.us/a/img838/9531/dw1.gif|http://imageshack.us/a/img838/9531/dw1.gif|http://imageshack.us/a/img838/9531/dw1.gif|http://imageshack.us/a/img838/9531/dw1.gif

Related at Naruto Shippuuden - 334 mkv:
© 2019 www.gphi.it | Contacts | DMCA | Privacy Policy