» » Fairy Tail S2 - 10 mp4 Hi10 720p ENG-SUBBED GWC 185
Language: Japanese
Size: 104.8 MB
Rating: 4.1
Category: Anime
Votes: 587
Fairy Tail S2 - 10 mp4 Hi10 720p ENG-SUBBED GWC 185
Files:
  • Fairy Tail S2 - 10 (185) [Hi10 720p] [ENG-SUBBED] [GWC].mp4 (104.8 MB)


You are going to Watch Fairy Tail Episode 10 English subbed online free episodes with HQ, high quality. Stream Anime Fairy Tail Episode 185 Online English sub Erza vs. Kagura.

You are going to Watch Fairy Tail Episode 10 English subbed online free episodes with HQ, high quality. Future Lucy collapses and is taken in by Natsu's team, while Princess Hisui and Jellal ponder over the upcoming calamity. Meanwhile, as Gajeel and Laxus square off against Rogue and Olga, respectively, Minerva pits Erza and Kagura against each other before leaving with Millianna.

Audio Books & Poetry Community Audio Computers & Technology Music, Arts & Culture News & Public Affairs Non-English Audio Radio Programs. Librivox Free Audiobook. Spirituality & Religion Podcasts.

TOP 10 COUPLES FAIRY TAIL ♡ - Продолжительность: 3:04 LUCY .

TOP 10 COUPLES FAIRY TAIL ♡ - Продолжительность: 3:04 LUCY HEARTFILIA ღ Recommended for you. 3:04. ィア・ボーイズ【Dear Boys Moments An Intriguing Transfer Student FULL HD - Продолжительность: 10:36 DK Media Recommended for you. 10:36.

Anime Tosho Home Fairy Tail (2014) 51, Fairy Tail of the Dead Meeeeeeeeen . Fairy Tail S2 - 01 (176) - 51 (226). Series (!) Fairy Tail (2014) - Episode 51 (of 102): Fairy Tail of the Dead Meeeeeeeeen.

Synonyms: Fairy Tail Season 3, Fairy Tail (2018). 298 episode is interrupted at 10:51 minut. ideo is not complete. 720p Encoded Anime Download. Anthony Sagnard says: July 3, 2019 at 9:17 AM. Hi, when is episode 293 coming out? Reply. 480p Encoded Anime Download. 360p Encoded Anime Download.

This success pushes the Fairy Tail guild closer to being crowned the overall champions, but obtaining victory isn't the .

This success pushes the Fairy Tail guild closer to being crowned the overall champions, but obtaining victory isn't the only challenge they face. A mystery still surrounds a hooded stranger and the ominous Eclipse Gate, leaving more questions than answers. More crazy adventures are on the horizon for Fairy Tail as their destructive antics and joyful rowdiness continue unabated.

Alternative Titles English: Fairy Tail Series 2 Synonyms: Fairy Tail Season 2 Japanese: フェアリーテイル.

Watch Fairy Tail: Final Season Episode 8 English Subbed online in H.

Watch Fairy Tail: Final Season Episode 8 English Subbed online in HD. Watch Fairy Tail: Final Season Episode 8 English Subbed or free at online streaming. Fairy Tail anime info and recommendations. The final season of Fairy Tail. IPhone X XR XS 6 7 8 Plus Flexible Slim TPU Protector Cover Natsu Dragneel. Fairy Tail Nalu Fairy Tail Lucy Fairy Tail Dragon Slayer Fairy Tail Guild Animes Wallpapers Jellal Anime Fairy Fairy Tail Couples Fairy Tail Family.

Wendy Marvell 10/13/18. Into Fairy Tail? Join the community. Get App. More from Wendy Marvell. 9. 0. Watch or download Fairy Tail (2018) Episode 2 English Subbed in high quality 1080p 720p 480p 360p 240p for free on Kickassanime. View it. KICKASSANIME. Eden's Zero is going to be animated after Fairy Tail Final season ends!!! 10/13/18. Wendy Marvell 10/13/18. sparkles: Casting Call - Do You Want To Host An Official Amino Voice Chat?

Fairy Tail S2 - 10 [Hi10 720p] [ENG-SUBBED] [GWC]

STORYLINE :
A young celestial mage, (Lucy Heartfilia), runs away from home and travels to the land of Fiore to join the magical (Fairy Tail Guild). Along the way, she meets (Natsu Dragneel), a teenage boy looking for his foster parent, a dragon named (Igneel), with his best friend, (Happy) the cat. Shortly after their meeting, Lucy is abducted by (Bora) of Prominence, who was posing as Salamander of Fairy Tail, to be sold as a slave. Natsu rescues her and reveals that he is the real Salamander of Fairy Tail and has the skills of a Dragon Slayer, an ancient fire magic. He offers her membership into the guild, which she gladly accepts, they along with (Erza Scarlet) — Armoured maiden, (Gray Fullbuster) — Ice Maker, and Happy become a team performing various missions offered to the Fairy Tail guild.



FOLLOW ON FACEBOOK :






General
Format : MPEG-4
Format profile : Base Media
File size : 105 MiB
Duration : 21mn 33s
Overall bit rate mode : Variable
Overall bit rate : 680 Kbps
Video
Format : AVC
Format profile : High [email protected]
Format settings, CABAC : Yes
Format settings, ReFrames : 10 frames
Duration : 21mn 33s
Bit rate : 604 Kbps
Maximum bit rate : 3 239 Kbps
Width : 1 280 pixels
Height : 720 pixels
Display aspect ratio : 16:9
Frame rate mode : Variable
Frame rate : 23.976 fps
Stream size : 93.1 MiB (89%)
Title : Fairy Tail S2 - 10 [Hi10 720p] [ENG-SUBBED] [GWC]
Writing library : x264 core
Audio
Format : AAC
Format profile : HE-AAC / LC
Duration : 21mn 32s
Bit rate mode : Variable
Channel(s) : 2 channels
Sampling rate : 48.0 KHz / 24.0 KHz
Stream size : 11.1 MiB (11%)
Language : Japanese
Text
Format : Timed Text
Title : [GWC]
Language : English

Images:
http://i.imgur.com/oq6zRgU.jpg|http://s20.postimg.org/l0qsjtqex/ailscreenscib.png|http://i.imgur.com/9wBhwn5.jpg|http://s21.postimg.org/d7ezolr5j/facebook_logo.png|http://i.imgur.com/FQ6bMc5.gif|http://i.imgur.com/9llPOMh.gif|http://i.imgur.com/FQ6bMc5.gif|http://s20.postimg.org/yqc6oob95/MEDII.jpg

Related at Fairy Tail S2 - 10 mp4:
© 2019 www.gphi.it | Contacts | DMCA | Privacy Policy