» » Detective Conan 480p Cursator Case Closed Season 2 Ep 29-54
Language: Japanese
Size: 1.1 GB
Rating: 4.0
Category: Anime
Votes: 143
Detective Conan 480p Cursator Case Closed Season 2 Ep 29-54
Files:
  • Detective Conan Ep 52.mp4 (81.2 MB)
  • Detective Conan Ep 33.mp4 (52.0 MB)
  • Detective Conan Ep 47.mp4 (50.2 MB)
  • Detective Conan Ep 48.mp4 (49.4 MB)
  • Detective Conan Ep 32.mp4 (48.1 MB)
  • Detective Conan Ep 30.mp4 (46.6 MB)
  • Detective Conan Ep 49.mp4 (46.4 MB)
  • Detective Conan Ep 54.mp4 (45.6 MB)
  • Detective Conan Ep 51.mp4 (44.7 MB)
  • Detective Conan Ep 29.mp4 (44.6 MB)
  • Detective Conan Ep 53.mp4 (44.3 MB)
  • Detective Conan Ep 31.mp4 (44.1 MB)
  • Detective Conan Ep 35.mp4 (43.3 MB)
  • Detective Conan Ep 50.mp4 (43.2 MB)
  • Detective Conan Ep 38.mp4 (42.9 MB)
  • Detective Conan Ep 44.mp4 (42.5 MB)
  • Detective Conan Ep 45.mp4 (42.4 MB)
  • Detective Conan Ep 42.mp4 (41.6 MB)
  • Detective Conan Ep 37.mp4 (41.6 MB)
  • Detective Conan Ep 34.mp4 (41.6 MB)
  • Detective Conan Ep 36.mp4 (41.3 MB)
  • Detective Conan Ep 43.mp4 (40.9 MB)
  • Detective Conan Ep 41.mp4 (40.8 MB)
  • Detective Conan Ep 46.mp4 (40.4 MB)
  • Detective Conan Ep 39.mp4 (40.2 MB)
  • Detective Conan Ep 40.mp4 (35.0 MB)
Cover
  • Detective Conan [Cursator].jpg (549.8 KB)
Screenshots
  • Detective Conan 3.png (413.4 KB)
  • Detective Conan 2.png (406.4 KB)
  • Detective Conan 1.png (402.9 KB)
  • Detective Conan 5.png (390.6 KB)
  • Detective Conan 4.png (305.7 KB)


The second season of the Case Closed anime was directed by Kenji Kodama and produced by TMS Entertainment and Yomiuri Telecasting Corporation. The series is based on Gosho Aoyama's Case Closed manga series.

The second season of the Case Closed anime was directed by Kenji Kodama and produced by TMS Entertainment and Yomiuri Telecasting Corporation. In Japan, the series is titled Detective Conan (名探偵コナン Meitantei Conan) but was changed due to legal issues with the title Detective Conan. The episodes' plot continues Jimmy Kudo's life as a young child named Conan Edogawa. The episodes features a temporary return of Jimmy Kudo.

Series Name: Detective Conan (Case Closed). Release: January 19, 1994 – present. Quality: 480p & 720p HD.

Series Information: Series Name: Detective Conan (Case Closed). Running Time: 25 Minute. Type: English Subbed. Encoded By: Coolsanime. Detective Conan (Case Closed) Episodes English Subbed 480p 720p. Episode 936 : The Food Court Conspiracy 480p – Google Drive Direct 720p – Google Drive Direct.

All The Episodes of Detective Conan (Season 2) aka "Case Closed" (Ep 29-54) at 480p Video Quality

All The Episodes of Detective Conan (Season 2) aka "Case Closed" (Ep 29-54) at 480p Video Quality :) Please seed after you download.

Come and download cursator case closed absolutely for free. 1. Detective Conan (Case Closed) (Season 2 Ep 29-54) 480p Cursator Posted by Cursator in Anime Anime. 0. 3. Detective Conan (Case Closed) (Season 3 Ep 55-82) 480p Cursator Posted by Cursator in Anime Anime.

Case Closed, also known as Detective Conan (名探偵コナン Meitantei Konan), is a Japanese detective manga series written and illustrated by Gosho Aoyama

Case Closed, also known as Detective Conan (名探偵コナン Meitantei Konan), is a Japanese detective manga series written and illustrated by Gosho Aoyama. It has been serialized in Shogakukan's Weekly Shōnen Sunday since January 19, 1994, and has been collected into 96 tankōbon volumes as of April 10, 2019.

Detective Conan follows Shinichi who, as Conan, starts secretly solving the senior Mouri's cases from behind the scenes with his still exceptional sleuthing skills, while covertly investigating the organization responsible for his current state, hoping to reverse the drug's effects someday. English: Case Closed.

Case Closed: One truth Prevails (English). DC. Detectiu Conan (Catalan). El Detective Conan (испанское). Mästerdetektiven Conan (Swedish).

Альтернативные названия. Case Closed: One truth Prevails (English). Détective Conan (французское). Detectivul Conan (Romanian). Detektif Conan (Indonesian). Meitantei Conan (японское).

Детектив Конан (1996– ). Episode List. Conan's on the case when the manager of a cleaning company is crushed by a piece of steel, but he encounters only dead ends in the alleyway where the murder was committed. Season: 1 2 3 4 5 6 7 8 9 10 11 12 13 14 15 16 17 18 19 20 21 22 23 24 25 26 27 28 29 30 31 32 33 34 35 36 37 38 39 40 41 42 43 44 45 46 47 48 49 50. OR. Year: .

Case Closed/Detective Conan. Detective Conan Lovers. Detective Conan/Shinichi Kudo.

All The Episodes of Detective Conan (Season 2) aka "Case Closed" (Ep 29-54) at 480p Video Quality :)
Please seed after you download.

Cover




-
IMDB Info

http://www.imdb.com/title/tt0131179/
Torrent Statistics


General

Format : MPEG-4
Format profile : Base Media
Codec ID : isom
File size : 39.4 MiB
Duration : 24mn 39s
Overall bit rate mode : Variable
Overall bit rate : 223 Kbps
Writing application : Lavf52.61.0

-
ID : 1
Format : AVC
Format/Info : Advanced Video Codec
Format profile : [email protected]
Format settings, CABAC : Yes
Format settings, ReFrames : 5 frames
Codec ID : avc1
Codec ID/Info : Advanced Video Coding
Duration : 24mn 39s
Bit rate : 124 Kbps
Width : 640 pixels
Height : 480 pixels
Display aspect ratio : 4:3
Frame rate mode : Constant
Frame rate : 23.976 fps
Color space : YUV
Chroma subsampling : 4:2:0
Bit depth : 8 bits
Scan type : Progressive
Bits/(Pixel*Frame) : 0.017
Stream size : 21.8 MiB (55%)
Writing library : x264 core 93 r1542 5b86182


ID : 2
Format : AAC
Format/Info : Advanced Audio Codec
Format profile : LC
Codec ID : 40
Duration : 24mn 39s
Bit rate mode : Variable
Bit rate : 96.0 Kbps
Channel(s) : 2 channels
Channel positions : Front: L R
Sampling rate : 48.0 KHz
Compression mode : Lossy
Delay relative to video : 83ms
Stream size : 16.9 MiB (43%)









Story

Kudo Shinichi is a seventeen year-old high school detective whom people call the "Modern Sherlock Holmes." However, one night after a date with his childhood sweetheart, Ran, Shinichi witnessed an illegal trade and, caught off his guard, was knocked unconscious and fed a drug that was supposed to kill him... but he woke up and found himself shrunken to a seven year old. In order to track down the men who did this to him, Shinichi hid his identity and lived with Ran, whose father happened to be a hopeless detective, and with that came a series of murders and mysteries that he must solve.

Thank you for downloading.
Enjoy Watching :)

Facebook


[b]Find Me on Facebook :)

or
[email protected]

Images:
http://img339.imageshack.us/img339/4091/detectiveconancursator.jpg|http://41.imagebam.com/download/uZsc2Vv9LdglWdCAEe9S-g/19196/191952191/info.png|http://torrent-stats.info/7daa/fe0a18fc.png|http://63.imagebam.com/download/uqoGGTUKGJxqviU6WrTzHQ/19196/191952197/video.png|http://70.imagebam.com/download/GmjNa7dCiX8el9sEMWqyVA/19196/191952207/audio.png|http://70.imagebam.com/download/7VGFyO2yIfW0R5Sixnu3jg/19196/191952214/screenshots.png|http://img197.imageshack.us/img197/925/detectiveconan1.png|http://img836.imageshack.us/img836/1508/detectiveconan2.png|http://img607.imageshack.us/img607/4382/detectiveconan3.png|http://img692.imageshack.us/img692/9124/detectiveconan4.png|http://img809.imageshack.us/img809/9058/detectiveconan5.png|http://webgeek.elletis.com/wp-content/uploads/facebook-music-nota.jpg

Related at Detective Conan 480p :
Comments 2
Delari
seeeeds bro plzzz
Keel
seeeeds bro plzzzz
© 2019 www.gphi.it | Contacts | DMCA | Privacy Policy