» » Miss Kobayashi's Dragon Maid Complete 720p x264 EngDub
Language: English
Size: 1.2 GB
Rating: 4.0
Category: Anime
Votes: 780
Miss Kobayashi's Dragon Maid Complete 720p x264 EngDub
Files:
[DigiMaza] Miss Kobayashi's Dragon Maid
  • [DigiMaza] Miss Kobayashis Dragon Maid Episode 12.mkv (106.9 MB)
  • [DigiMaza] Miss Kobayashis Dragon Maid Episode 11.mkv (106.8 MB)
  • [DigiMaza] Miss Kobayashis Dragon Maid Episode 13.mkv (106.8 MB)
  • [DigiMaza] Miss Kobayashis Dragon Maid Episode 05.mkv (91.8 MB)
  • [DigiMaza] Miss Kobayashis Dragon Maid Episode 01.mkv (91.8 MB)
  • [DigiMaza] Miss Kobayashis Dragon Maid Episode 02.mkv (91.8 MB)
  • [DigiMaza] Miss Kobayashis Dragon Maid Episode 07.mkv (91.8 MB)
  • [DigiMaza] Miss Kobayashis Dragon Maid Episode 04.mkv (91.8 MB)
  • [DigiMaza] Miss Kobayashis Dragon Maid Episode 03.mkv (91.8 MB)
  • [DigiMaza] Miss Kobayashis Dragon Maid Episode 06.mkv (91.7 MB)
  • [DigiMaza] Miss Kobayashis Dragon Maid Episode 09.mkv (91.6 MB)
  • [DigiMaza] Miss Kobayashis Dragon Maid Episode 10.mkv (91.6 MB)
  • [DigiMaza] Miss Kobayashis Dragon Maid Episode 08.mkv (91.5 MB)
  • Read Me.txt (0.5 KB)


Miss Kobayashi's Dragon Maid. Category: Winter 2017 Anime. Kobayashi-san Chi no Maid Dragon Completed. Kobayashi lives alone in an apartment, until one day, Tooru appeared and they ended up living together

Miss Kobayashi's Dragon Maid. Other name: 小林さんちのメイドラゴン, The maid dragon of Kobayashi-san, Miss koboyashi dragons maid, Miss Kobayashi's Dragon Maid, Kobayashi-san Chi no Maid Dragon. Kobayashi lives alone in an apartment, until one day, Tooru appeared and they ended up living together. Tooru looks down on humans as inferior and foolish, but having been saved by Kobayashi-san, she does everything she can to repay the debt and help her with various things, although not everything goes according to plan.

09 GB. Miss Kobayashis Dragon Maid S01-E03 Start of a New Life. Miss Kobayashis Dragon Maid S01-E05 Tohrus Real World Lessons. yify italian 720p 1080p Hindi 480p french x264. 8 GB. Miss Kobayashis Dragon Maid S01-E04 Kanna Goes to School. Miss Kobayashis Dragon Maid S01-E06 Home Visit. 9 GB. Miss Kobayashis Dragon Maid S01-E07 Summers Staples. Miss Kobayashis Dragon Maid S01-E08 New Dragon Elma. GB. Miss Kobayashis Dragon Maid S01-E09 Sports Festival.

Kobayashi lives alone in an apartment, until one day, Tooru appeared and they ended up living together.

Assassins Pride Episode 4 English Dubbed. South Park Season 23 Episode 9 - Basic Cable. Gundam Build Divers Re:Rise Episode 10 English Subbed. Levius Episode 12 English Dubbed. Assassins Pride Episode 9 English Subbed. Levius Episode 1 English Dubbed. Kemono Michi: Rise Up Episode 8 English Dubbed. To the Abandoned Sacred Beasts Episode 10 English Dubbed. Radiant Season 2 Episode 8 English Dubbed.

Miss Kobayashis Dragon Maid Episode 1. kv (10. MB. You will be redirected in 3 seconds. MB). Miss Kobayashis Dragon Maid Episode 1. Miss Kobayashis Dragon Maid Episode 0. kv (9.

Posted in: Completed.

Torrents . Kobayashi-san Chi no Maid Dragon. Posted in: Completed. энкодер, мизантроп, каваист. View all posts by frost →. 8 Thoughts on Kobayashi-san Chi no Maid Dragon . DS2902 on June 24, 2017 at 15:37 said: Вах, какой попка.

Miss Kobayashi's Dragon Maid is great! It's very fun and heartwarming. You will love these adorable characters. If you're looking for a cute, endearing Slice of Life anime, it's hard to do better than Miss Kobayashi's Dragon Maid. The one star deduction comes solely from the actual product itself and not the content it features, which I will now explain in detail. The packaging itself is quite nice.

Miss Kobayashi's Dragon Maid Dubbed - Episode 1 Kobayashi-san Chi no Maidragon. Miss Kobayashi is your average office worker who lives a boring life, alone in her small apartment–until she saves the life of a female dragon in distress

Miss Kobayashi's Dragon Maid Dubbed - Episode 1 Kobayashi-san Chi no Maidragon. Miss Kobayashi is your average office worker who lives a boring life, alone in her small apartment–until she saves the life of a female dragon in distress.

Miss Kobayashi’s Dragon Maid Episode 14: Valentine’s, and Then Hot Springs! – Please Don’t Get Your Hopes Up is the unaired episode included with the 7th volume of the BD/DVD release of Kobayashi-san Chi no Maid Dragon. Related Anime Prequel: Kobayashi-san Chi no Maid Dragon Sequel: Kobayashi-san Chi no Maid Dragon 2nd Season.

Japan Anime Miss Kobayashi's Dragon Maid, Kobayashi-san Chi no. .Miss Kobayashi’s Dragon Maid Free Download Gabriel DropOut English Subbed Episodes 480p 60MB 720p 90MB 1080p 150MB Mini MKV. Erin Stacey.

Japan Anime Miss Kobayashi's Dragon Maid, Kobayashi-san Chi no Meidoragon cosplay KannaKamuy cos costume daily sweet girl dress. Miss Kobayashi’s Dragon Maid. Omfg i love this anime, i ship these two so hard xD. Training your lover dragon (Kobayashi x Tohru) by xXKonamiLoveXx. Free Download Gabriel DropOut English Subbed Episodes 480p 60MB 720p 90MB 1080p 150MB Mini MKV.

Miss Kobayashi's Dragon Maid Complete (EngDub) 720p x264 Download

Quote:

Kobayashi lives alone in an apartment, until one day, Tooru appeared and they ended up living together. Tooru looks down on humans as inferior and foolish, but having been saved by Kobayashi-san, she does everything she can to repay the debt and help her with various things, although not everything goes according to plan.

..::File Specs::..
General
Format : Matroska
Format version : Version 4 / Version 2
File size : 91.8 MiB
Duration : 23 min 39 s
Overall bit rate : 542 kb/s
Video
ID : 1
Format : AVC
Format/Info : Advanced Video Codec
Format profile : [email protected]
Format settings, CABAC : Yes
Format settings, ReFrames : 6 frames
Codec ID : V_MPEG4/ISO/AVC
Duration : 23 min 39 s
Bit rate : 476 kb/s
Width : 1 280 pixels
Height : 720 pixels
Display aspect ratio : 16:9
Frame rate mode : Constant
Frame rate : 23.976 (23976/1000) FPS
Original frame rate : 23.976 (24000/1001) FPS
Color space : YUV
Chroma subsampling : 4:2:0
Bit depth : 8 bits
Scan type : Progressive
Bits/(Pixel*Frame) : 0.022
Stream size : 80.7 MiB (88%)
Audio
Format : AAC
Format/Info : Advanced Audio Codec
Format profile : HE-AAC / LC
Codec ID : A_AAC
Duration : 23 min 39 s
Bit rate : 64.0 kb/s
Channel(s) : 2 channels
Channel positions : Front: L R
Sampling rate : 48.0 kHz / 24.0 kHz
Frame rate : 23.438 FPS (1024 spf)
Compression mode : Lossy
Stream size : 10.8 MiB (12%)
..::ScreenShots::..
https://s2.postimg.org/90ddyjejt/vlcsnap-2017-06-02-12h32m14s175.png
https://s2.postimg.org/ozw1i3all/vlcsnap-2017-06-02-12h32m24s495.png
https://s2.postimg.org/e1krzwm09/vlcsnap-2017-06-02-12h32m39s918.png
================================================================
Seed Seed Seed Seed Seed Seed Seed Seed Seed Seed Seed Seed Seed
To direct download this file, Visit.
www.DigiMaza.com
Seed Seed Seed Seed Seed Seed Seed Seed Seed Seed Seed Seed Seed
================================================================

Images:
https://s22.postimg.org/dswu337j5/Miss_Kobayashi_s_Dragon_Maid_digimaza.jpg

Related at Miss Kobayashi's Dragon Maid Complete 720p x264:
Comments 1
Ausstan
Thanks A lot !!!
© 2019 www.gphi.it | Contacts | DMCA | Privacy Policy