» » Sofia the First S04E14 The Mystic Isles The Falcons Eye 1080p x264 Phun Psyz
Language: English
Size: 199.1 MB
Rating: 4.6
Category: Anime
Votes: 896
Sofia the First S04E14 The Mystic Isles The Falcons Eye 1080p x264 Phun Psyz
Files:
  • Sofia the First S04E14 The Mystic Isles The Falcons Eye 1080p x264 Phun Psyz.mp4 (199.1 MB)


Cartoon video Sofia The First Episode 97 online for free in HD.

Video Errors & Solutions. Attention : About %80 of broken-missing video reports we recieve are invalid so that we believe the problems are caused by you, your computer or something else.

Watch sofia the first season 4 2017 online free in high quality Full HD 1080p, 720p

Watch sofia the first season 4 2017 online free in high quality Full HD 1080p, 720p. Watch Sofia the First - Season 4 (2017) tv-series/movies online for free, Free movie sofia the first season 4 2017 with English Subtitles, Watch Sofia the First - Season 4 (2017) full movie, Watch Sofia the First - Season 4 (2017) in HD quality online for free, putlocker Sofia the First - Season 4 (2017), xmovies8 Sofia the First - Season 4 (2017), download Sofia. the First - Season 4 (2017), watch Sofia the First - Season 4 (2017) with HD streaming, Sofia the First - Season 4 (2017) fmovies, google drive Sofia the First - Season 4 (2017).

Watch TV Show Sofia The First Season 4 Episode 14 – The Mystic Isles: The Falcon’s Eye online for Free in HD/High Quality. Cartoons are for kids and Adults! Our players are mobile (HTML5) friendly, responsive with ChromeCast support. You can use your mobile device without any trouble.

Transformers: Cyberverse Season 2 Episode 14 - Party Down. Designed for WC. v - Watch Cartoons Online.

AAC torrent or any other torrent from the Video HD - TV shows.

The Mystic Isles: The Falcon's Eye " is the ninety-ninth episode of the Disney Junior animated series Sofia the First. It premiered on October 27, 2017 and is the sixteenth episode in the fourth season. Chrysta is teaching Sofia how to use the Necessi-Key, a magical key that can be used to make a magical door wherever and whenever it's user wants, however it only lasts for a few seconds

Chrysta and Sofia go on a stakeout in Wei Ling to protect a Wicked 9 from Prisma. Source: Lazy (864 MiB). Sofia the First S04E13 Pirated Away 1080p x264 Phun Psyz.

Chrysta and Sofia go on a stakeout in Wei Ling to protect a Wicked 9 from Prisma. Posted in TV. 195 MB.

Sofia the First S04E17 The Birthday Wish 1080p x264 Phun Psyz. 27. 3 MB.

Sofia the First 4 сезон, 21 серия. The Mystic Isles: The Princess and the Protector. The arrival of the Queen Mum makes everyone question who will be the next king or queen; chaos ensues as Amber and James try to prove who will be the best. 4 сезон, 21 серия Вышла 14 Мая 2018 TV-Y 25 мин. Disney Junior. Серия 7. The Royal Dragon. Серия 8. The Mystic Isles: The Mare of the Mist.

x265 Size, x264 Compatibility, HD Quality
http://www.imdb.com/title/tt7448268/?ref_=ttep_ep14
Chrysta and Sofia go on a stakeout in Wei Ling to protect a Wicked 9 from Prisma.
Source: Lazy (864 MiB)


Format : MPEG-4
Format profile : Base Media / Version 2
Codec ID : mp42 (isom/iso2/avc1/mp41)
File size : 199 MiB
Duration : 23 min 5 s
Overall bit rate mode : Variable
Overall bit rate : 1 206 kb/s
Writing application : HandBrake 1.0.0 2016122400
Video
ID : 1
Format : AVC
Format/Info : Advanced Video Codec
Format profile : [email protected]
Format settings : CABAC / 8 Ref Frames
Format settings, CABAC : Yes
Format settings, RefFrames : 8 frames
Codec ID : avc1
Codec ID/Info : Advanced Video Coding
Duration : 23 min 5 s
Bit rate : 1 039 kb/s
Width : 1 920 pixels
Height : 1 080 pixels
Display aspect ratio : 16:9
Frame rate mode : Variable
Frame rate : 23.976 (24000/1001) FPS
Minimum frame rate : 23.974 FPS
Maximum frame rate : 23.981 FPS
Color space : YUV
Chroma subsampling : 4:2:0
Bit depth : 8 bits
Scan type : Progressive
Bits/(Pixel*Frame) : 0.021
Stream size : 172 MiB (86%)
Writing library : x264 core 148 r2708 86b7198
Color range : Limited
Color primaries : BT.709
Transfer characteristics : BT.709
Matrix coefficients : BT.709
Audio
ID : 2
Format : AAC
Format/Info : Advanced Audio Codec
Format profile : LC
Codec ID : mp4a-40-2
Duration : 23 min 5 s
Bit rate mode : Variable
Bit rate : 160 kb/s
Channel(s) : 2 channels
Channel positions : Front: L R
Sampling rate : 48.0 kHz
Frame rate : 46.875 FPS (1024 SPF)
Compression mode : Lossy
Stream size : 26.4 MiB (13%)
Title : Stereo / Stereo
Language : English
Default : Yes
Alternate group : 1
Text
ID : 3
Format : Timed Text
Muxing mode : sbtl
Codec ID : tx3g
Duration : 22 min 37 s
Bit rate mode : Variable
Bit rate : 125 b/s
Stream size : 20.6 KiB (0%)
Language : English
Default : Yes
Forced : No
Alternate group : 3

Images:
http://torrent-stats.info/1a48/62528f28.png|https://extraimage.net/images/2017/11/02/1a647742007fa558d42cc21201880e5d.jpg|https://extraimage.net/images/2017/11/02/f61e53625a110ea639db6e7c74bdaa2d.jpg|https://extraimage.net/images/2017/11/02/bfc142a393ad12aa89d7d106a4c8255f.jpg|https://extraimage.net/images/2017/11/02/260b392203bd60ff07df59c41cd58d83.jpg|https://extraimage.net/images/2017/11/02/0fd76fa242773c824c1c508df07ef56a.jpg

Related at Sofia the First S04E14 The Mystic Isles The Falcons Eye 1080p x264 Phun Psyz:
© 2019 www.gphi.it | Contacts | DMCA | Privacy Policy