» » Hunter X Hunter - 130 mp4 Hi10 720p ENG SUBBED GWC
Language: Japanese
Size: 92.4 MB
Rating: 4.5
Category: Anime
Votes: 337
Hunter X Hunter - 130 mp4 Hi10 720p ENG SUBBED GWC
Files:
  • Hunter X Hunter - 130 [Hi10 720p] [ENG SUBBED] [GWC].mp4 (92.4 MB)


You are currently watching Hunter x Hunter (2011) episode 130 in High Quality. Support us by donating to keep the site up & running.

You are currently watching Hunter x Hunter (2011) episode 130 in High Quality. We will always run free from pop ads and strive to provide the best streaming experience for everyone.

Hunter x Hunter (2011) Episode 130 English Dubbed. Category : Hunter x Hunter (2011). Watch Hunter x Hunter (2011) Episode 130 English Dubbed Online with High Quality.

x264-CTR (English Dubbed Dual Audio). Wish - Sanctuary (Hunter x Hunter Greed Island OVA OP). GiB. 2019-08-25 20:56. 4. MiB. 2019-07-18 23:01.

Be careful of what you download or face the consequences.

Episode List: Hunter x Hunter. Hunter X Hunter 130 Subtitle Indonesia Animeindo. Status: Sub Indo ANIMEINDO. 480P: Solidfiles Mirrorcreator Billionuploads Uppit Acefile. 720p: Solidfiles Mirrorcreator Billionuploads Uppit Acefile.

Please bookmark this domain and UNBLOCK on us ADBLOCK!!! We recieve too many complaints regarding to broken videos. If you are using an ADblock you probably won't be able to watch in HD and sometimes you will get errors like "No video with supported format and MIME type found". This is a bug of Adblock not our fault!! Please turn off your Adblocks to watch it without any trouble. Hunter x Hunter (2011) Episode 23 English Subbed.

TIN Anime Series H Hunter x Hunter (TV) Episode 121. Download Hunter x Hunter episode 121.

Hunter x Hunter episode 120 Hunter x Hunter episode 122. What's Hot.

Categories Anime torrents Hunter X Hunter torrents.

10. Court Refused to Help MegaUpload User Get Files Back. more p2p news on torrentfreak. Categories Anime torrents Hunter X Hunter torrents. Trackers: 5. View all torrent trackers . Health: seeds: 0., leechers: 0.

Hunter X Hunter - 130 [Hi10 720p] [ENG SUBBED] [GWC]

STORYLINE :
Gon is a youth who lives on Kujira Isle. His dream is to become a Hunter like his father, to search out lost treasures, artefacts, and mythical creatures.
Determined to become a professional Hunter willing to stake his life in challenging the unknown, he sets off on a journey and meets fellow Hunter wannabes Killua, Kurapika, and Leorio.





FOLLOW ON FACEBOOK :





General
Format : MPEG-4
Format profile : Base Media
File size : 92.4 MiB
Duration : 20mn 54s
Overall bit rate mode : Variable
Overall bit rate : 618 Kbps
Video
Format : AVC
Format profile : High [email protected]
Format settings, CABAC : Yes
Format settings, ReFrames : 10 frames
Duration : 20mn 54s
Bit rate : 542 Kbps
Maximum bit rate : 3 396 Kbps
Width : 1 280 pixels
Height : 720 pixels
Display aspect ratio : 16:9
Frame rate mode : Variable
Frame rate : 23.976 fps
Stream size : 81.0 MiB (88%)
Title : Hunter X Hunter - 130 [Hi10 720p] [ENG SUBBED] [GWC]
Writing library : x264 core
Audio
Format : AAC
Format profile : HE-AAC / LC
Duration : 20mn 54s
Bit rate mode : Variable
Channel(s) : 2 channels
Sampling rate : 48.0 KHz / 24.0 KHz
Stream size : 10.8 MiB (12%)
Language : Japanese
Text
Format : Timed Text
Title : [GWC]
Language : English

Images:
http://i.imgur.com/TPxM6Wp.jpg|http://s20.postimg.org/l0qsjtqex/ailscreenscib.png|http://img163.imageshack.us/img163/8710/54100788659511547411.gif|http://i.imgur.com/PAODIgT.jpg|http://img163.imageshack.us/img163/8710/54100788659511547411.gif|http://s21.postimg.org/d7ezolr5j/facebook_logo.png|http://img651.imageshack.us/img651/8905/saythanks.gif|http://imageshack.us/a/img27/5276/i57.png|http://img651.imageshack.us/img651/8905/saythanks.gif|http://s20.postimg.org/yqc6oob95/MEDII.jpg

Related at Hunter X Hunter - 130 mp4:
© 2019 www.gphi.it | Contacts | DMCA | Privacy Policy