» » Sofia the First S04E18 In Cedric We Trust 1080p DD5 1 - 2 0 x264 Phun Psyz
Language: English
Size: 265.9 MB
Rating: 4.4
Category: Anime
Votes: 048
Sofia the First S04E18 In Cedric We Trust 1080p DD5 1 - 2 0 x264 Phun Psyz
Files:
  • Sofia the First S04E18 In Cedric We Trust 1080p DD5.1 - 2.0 x264 Phun Psyz.mp4 (265.9 MB)


Cartoon video Sofia The First Episode 101 online for free in HD. Song: "I Am on Your Side".

Cartoon video Sofia The First Episode 101 online for free in HD. Please read !!! Even you might see 404 errors on Youtube so before you start swearing/reporting the video PLEASE try both players. There are seperated players and you are watching on Player 1. Also you can find HTML5/Mp4 player on the second player. Tried All Players and None Works.

AAC torrent or any other torrent from the Video TV shows.

Wormwood steals Grimhilde's crown, one of the Wicked 9, so Sofia helps Cedric retrieve it to gain back the King's trust. Sofia the First S04E15 The Mystic Isles The Great Pretender 1080p x264 Phun Psyz. Source: Lazy (907 MiB). Posted in TV. 185 MB.

Sofia The First Season 4 Episode 18 – In Cedric We Trust. Watch Sofia The First Season 4 Episode 18 – In Cedric We Trust Online with High Quality. If you wish to support us please don't block our Ads!!

Sofia The First Season 4 Episode 18 – In Cedric We Trust. Category : Sofia The First.

Recording on Sept 16 2018 Host: Jepoy Guinanao.

Title: In Cedric We Trust (26 Jan 2018). When Wormwood steals Grimhilde's Crown, one of the Wicked 9, Sofia helps Cedric retrieve it to gain back the King's trust.

Episode 026 - Sofia the First: Forever Royal Episode 025 - The Elf Situation Episode 024 - Return to Merroway Cove Episode 023 - The Lost Pyramid Episode 022 - The Royal School Fair Episode 02. .

Episode 026 - Sofia the First: Forever Royal Episode 025 - The Elf Situation Episode 024 - Return to Merroway Cove Episode 023 - The Lost Pyramid Episode 022 - The Royal School Fair Episode 021 - A Royal Wedding Episode 020 - The Mystic Isles: Undercover Fairies Episode 019 - The Mystic Isles: A Hero for the Hoodwinks Episode 018 - In Cedric We Trust Episode 017 - The Birthday Wish Episode

4 сезон, 18 серия Вышла 26 Января 2018 TV-Y 25 мин. Disney Junior. Сезон 4. Сезон 3. Сезон 2. Сезон 1. Спешлы. Серия 1. Day of the Sorcerers. Серия 2. The Secret Library: Tale of the Eternal Torch. Серия 3. The Crown of Blossoms. Серия 4. Pin the Blame on the Genie. Серия 5. The Mystic Isles.

www.imdb.com/title/tt5626568/?ref_=ttep_ep18
Wormwood steals Grimhilde's crown, one of the Wicked 9, so Sofia helps Cedric retrieve it to gain back the King's trust.
Source: Lazy (907 MiB)

Format : MPEG-4
Format profile : Base Media / Version 2
Codec ID : mp42 (isom/iso2/avc1/mp41)
File size : 266 MiB
Duration : 23 min 5 s
Overall bit rate mode : Variable
Overall bit rate : 1 611 kb/s
Video
ID : 1
Format : AVC
Format/Info : Advanced Video Codec
Format profile : [email protected]
Format settings : CABAC / 8 Ref Frames
Format settings, CABAC : Yes
Format settings, RefFrames : 8 frames
Codec ID : avc1
Codec ID/Info : Advanced Video Coding
Duration : 23 min 5 s
Bit rate : 1 123 kb/s
Width : 1 920 pixels
Height : 1 080 pixels
Display aspect ratio : 16:9
Frame rate mode : Variable
Frame rate : 23.976 (24000/1001) FPS
Minimum frame rate : 23.974 FPS
Maximum frame rate : 23.981 FPS
Color space : YUV
Chroma subsampling : 4:2:0
Bit depth : 8 bits
Scan type : Progressive
Bits/(Pixel*Frame) : 0.023
Stream size : 185 MiB (70%)
Writing library : x264 core 148 r2708 86b7198
Audio #1
ID : 2
Format : AC-3
Format/Info : Audio Coding 3
Format settings, Endianness : Big
Codec ID : ac-3
Duration : 23 min 5 s
Bit rate mode : Constant
Bit rate : 320 kb/s
Channel(s) : 6 channels
Channel positions : Front: L C R, Side: L R, LFE
Sampling rate : 48.0 kHz
Frame rate : 31.250 FPS (1536 SPF)
Bit depth : 16 bits
Compression mode : Lossy
Stream size : 52.8 MiB (20%)
Title : Surround / Surround
Language : English
Audio #2
ID : 3
Format : AAC
Format/Info : Advanced Audio Codec
Format profile : LC
Codec ID : mp4a-40-2
Duration : 23 min 5 s
Bit rate mode : Variable
Bit rate : 160 kb/s
Channel(s) : 2 channels
Channel positions : Front: L R
Sampling rate : 48.0 kHz
Frame rate : 46.875 FPS (1024 SPF)
Compression mode : Lossy
Stream size : 26.5 MiB (10%)
Title : Stereo / Stereo
Language : English
Text
ID : 4
Format : Timed Text
Muxing mode : sbtl
Codec ID : tx3g
Duration : 22 min 33 s
Bit rate mode : Variable
Bit rate : 124 b/s
Stream size : 20.5 KiB (0%)
Language : English
Default : Yes
Forced : No

Images:
https://extraimage.net/images/2018/01/31/fb674280b32389d61a7f7475d6ccd10b.md.png|https://extraimage.net/images/2018/01/31/7dc411e29c938801b7480dc2254be597.md.png|https://extraimage.net/images/2018/01/31/ae933e889842a4695ddf2bf51685475a.md.png|https://extraimage.net/images/2018/01/31/326071e922040fee654c413e3a40d446.md.png|https://extraimage.net/images/2018/01/31/c30234fb0276fb6d403b9ec789dd176b.md.png

Related at Sofia the First S04E18 In Cedric We Trust 1080p DD5 1 - 2 0 x264 Phun Psyz:
© 2019 www.gphi.it | Contacts | DMCA | Privacy Policy