» » New Game! Season 1 720p EngDub
Language: English
Size: 2.0 GB
Rating: 4.9
Category: Anime
Votes: 655
New Game! Season 1 720p EngDub
Files:
(DigiMaza) New Game!
  • (DigiMaza.com)New Game! Episode05.mkv (262.0 MB)
  • (DigiMaza.com)New Game! Episode06.mkv (262.0 MB)
  • (DigiMaza.com)New Game! Episode03.mkv (262.0 MB)
  • (DigiMaza.com)New Game! Episode02.mkv (262.0 MB)
  • (DigiMaza.com)New Game! Episode01.mkv (261.9 MB)
  • (DigiMaza.com)New Game! Episode04.mkv (261.9 MB)
  • (DigiMaza.com)New Game! Episode12.mkv (87.5 MB)
  • (DigiMaza.com)New Game! Episode08.mkv (87.5 MB)
  • (DigiMaza.com)New Game! Episode11.mkv (87.4 MB)
  • (DigiMaza.com)New Game! Episode09.mkv (87.4 MB)
  • (DigiMaza.com)New Game! Episode07.mkv (87.4 MB)
  • (DigiMaza.com)New Game! Episode10.mkv (87.3 MB)
  • Read Me.txt (0.5 KB)


Watch full New Game! Episode 1 English Dubbed streaming online.

Watch full New Game! Episode 1 English Dubbed streaming online. New Game! Episode 1 English dub online for free in HD. It Actually Feels Like I Started My Job Aoba Suzukaze, a high school graduate, begins her new job at the Eagle Jump video game company, where she is introduced to art director Rin Tōyama, lead character designer Kō Yagami, and game director Shizuku Hazuki. As Aoba learns how to make 3D models, she receives help from fellow character designer, Hifumi Sakamoto, who is shy talking in person but is quite casual talking online.

ScreenShots: Jack Ryan 2018 Season 2 Hindi Dubbed Dual Audio 720p Download.

Watch full Steven Universe Future Season 1 Episode 1 full HD online. Cartoon video Steven Universe Future 101 online for free in HD. Steven and the Gems have opened up the Little Homeschool, a place where newly healed Gems can learn to integrate into Earth society. All the Gems take to it except Jasper, who is still bitter about having lost her purpose. In an attempt to coax her out, Steven tries to reason with her; instead the two fight, and Steven develops new powerful abilities.

You are watching from New Game! the Anime series. Watch New Game! only at dubhappytv. The best place to watch New Game! Episode 1 English Dubbed video online in high quality.

New Game! Season 1 Complete 720p (EngDub) Download.

Season 1 720p (EngDub) Download torrent or any other torrent from the Video TV shows. Season 1 Complete 720p (EngDub) Download After graduating high school, Suzukaze Aoba joins Eagle Jump, the game company that developed Fairies Story, the game she obsessed over as a kid. On her first day as a working member of society, Aoba heads to work swaying in a packed, morning rush hour train. She manages to get to the office building all right but hesitates, wondering if it was really okay for her to take that last step and go inside.

Episode 1 English Dubbed online for Free. My Hero Academia Season 4 Episode 7 English Dubbed. The Legend of the Galactic Heroes: Die Neue These English Dubbed. Fire Force Episode 19 English Dubbed. High School Prodigies Have It Easy Even In Another World Episode 4 English Dubbed. No Guns Life Episode 6 English Dubbed. My Teen Romantic Comedy SNAFU Episode 11 English Dubbed.

in hindi हिंदी English 480p 720p Jack Ryan Season 03 hindi 720p bluray hd download Netflix Webseries download Jack .

in hindi हिंदी English 480p 720p Jack Ryan Season 03 hindi 720p bluray hd download Netflix Webseries download Jack Ryan Netflix hindi dubbed hd clearprint DVDRIp dvdscr hdrip hdcam hdts quality Netflix Webseries.

More New Show Coming Soo.

dark 2017 s1 dual audio, dark season 1 480p dubbed download, dark season 1 mkvcage, dark season 1 nf 480p dual audio, Netflix dark season 1 720p hd download, tv serials 720p webdl, English tv serise dubbed in hindi, Hollywood tv serial hindi dubbed download, Dark SEASON 01 S01 COMPLETE , dark season 1 dual audio

New Game! Season 1 Complete 720p (EngDub) Download

Quote:

After graduating high school, Suzukaze Aoba joins Eagle Jump, the game company that developed Fairies Story, the game she obsessed over as a kid. On her first day as a working member of society, Aoba heads to work swaying in a packed, morning rush hour train. She manages to get to the office building all right but hesitates, wondering if it was really okay for her to take that last step and go inside. That's when a senior member of staff, Toyama Rin, shows up at work and safely leads Aoba inside the offices of Eagle Jump.

..::File Specs::..
General
Format                                   : Matroska
Format version                           : Version 4 / Version 2
Duration                                 : 23 min 50 s
Overall bit rate                         : 1 537 kb/s
Video
ID                                       : 1
Format                                   : AVC
Format/Info                              : Advanced Video Codec
Format profile                           : [email protected]
Format settings, CABAC                   : Yes
Format settings, RefFrames               : 3 frames
Codec ID                                 : V_MPEG4/ISO/AVC
Duration                                 : 23 min 50 s
Bit rate                                 : 1 280 kb/s
Width                                    : 1 280 pixels
Height                                   : 720 pixels
Display aspect ratio                     : 16:9
Frame rate mode                          : Constant
Frame rate                               : 23.976 (24000/1001) FPS
Color space                              : YUV
Chroma subsampling                       : 4:2:0
Bit depth                                : 8 bits
Scan type                                : Progressive
Bits/(Pixel*Frame)                       : 0.058
Stream size                              : 218 MiB (83%)
Writing library                          : x264 core 148 r2643 5c65704
Default                                  : Yes
Forced                                   : No
Audio
ID                                       : 2
Format                                   : AAC
Format/Info                              : Advanced Audio Codec
Format profile                           : LC
Codec ID                                 : A_AAC
Duration                                 : 23 min 50 s
Bit rate                                 : 253 kb/s
Channel(s)                               : 2 channels
Channel positions                        : Front: L R
Sampling rate                            : 48.0 kHz
Frame rate                               : 46.875 FPS (1024 SPF)
Compression mode                         : Lossy
Stream size                              : 43.2 MiB (16%)
Language                                 : English
..::ScreenShots::..
http://i.imgur.com/1kjBztP.png
http://i.imgur.com/38edt0X.jpg
================================================================
Seed Seed Seed Seed Seed Seed Seed Seed Seed Seed Seed Seed Seed
To direct download or Watch Online this file, Visit.
www.bit.ly/2qz6ATZ
Seed Seed Seed Seed Seed Seed Seed Seed Seed Seed Seed Seed Seed
================================================================

Images:

Related at New Game! Season 1 720p :
© 2019 www.gphi.it | Contacts | DMCA | Privacy Policy