» » The Lion Guard S02E17 The Scorpions Sting 1080p x264 Phun Psyz
Language: English
Size: 227.2 MB
Rating: 4.5
Category: Anime
Votes: 565
The Lion Guard S02E17 The Scorpions Sting 1080p x264 Phun Psyz
Files:
  • The Lion Guard S02E17 The Scorpions Sting 1080p x264 Phun Psyz.mp4 (227.2 MB)


Season 2 Episode 17 The Scorpion's Sting. am i the only one who looks closely in episodes of the lion guard at 15:02 i saw Kenge from the lion guard episode The bite of Kenge that was awesome too bad he just does talk in this episode.

Season 2 Episode 17 The Scorpion's Sting.

The Lion Guard S02E15 The Little Guy 1080p x264 Phun Psyz. Posted in TV. 18. 8 MB.

The jackals and hyenas coordinate their attacks in an effort to divide the Lion Guard and conquer the Pridelands. Source: Lazy (843 MiB). The Lion Guard S02E15 The Little Guy 1080p x264 Phun Psyz.

Watch full The Lion Guard Season 2 Episode 17 full HD online. Cartoon video The Lion Guard Episode 43 online for free in HD. During the Kumbuka celebration honoring the day that Simba defeated Scar, a scorpion named Sumu sent by Scar stings Simba, causing him to become very ill. Rafiki sends Makini and the Lion Guard to the Outlands' volcano to get the volcanic ash needed to cure Simba by sundown

The Lion Guard S02E14 The Golden Zebra 1080p x264 Phun Psyz. will and grace s11e02 xvid afg tgx. 2 minutes ago.

The Lion Guard S02E14 The Golden Zebra 1080p x264 Phun Psyz. will and grace s11e01 xvid afg tgx. rick steins secret france. the elephant in room.

Makini and the Lion Guard are in The Lair of the Lion Guard, discussing Scar 's defeat at the paws of Simba ahead of the Kumbuka celebration, with Bunga arguing that his uncles Timon and Pumbaa were just as responsible for saving the Pride Lands as Simba.

A page for describing Recap: Lion Guard S 2 E 17 The Scorpions Sting Near-Villain Victory: Scar really comes dangerously close to winning, having the Lion Guard cornered by the Legion of Doom and forcing Kion in a position where using the Roar o. .

A page for describing Recap: Lion Guard S 2 E 17 The Scorpions Sting. Near-Villain Victory: Scar really comes dangerously close to winning, having the Lion Guard cornered by the Legion of Doom and forcing Kion in a position where using the Roar of The Elders would risk taking themselves out. Ocular Gushers: Timon and Pumbaa shed sprinkles of tears when the Guard returns to Pride Rock after chasing Sumu. Race Against the Clock: Kion and the Guard have until sundown to get the volcanic ash and heal Simba otherwise he'll die.

When Simba gets stung by a scorpion, the Lion Guard must travel to the Outlands to.Along the way, the Guard comes face to face with Scar for the very first time. Title: The Scorpion's Sting (02 Apr 2018).

When Simba gets stung by a scorpion, the Lion Guard must travel to the Outlands to find a cure.

x264-W4F torrent or any other torrent from the Video HD - TV shows. Details for this torrent. Type: Video HD - TV shows.

www.imdb.com/title/tt5991510/?ref_=ttep_ep17
The jackals and hyenas coordinate their attacks in an effort to divide the Lion Guard and conquer the Pridelands.
Source: Lazy (843 MiB)

Format : MPEG-4
Format profile : Base Media / Version 2
Codec ID : mp42 (isom/iso2/avc1/mp41)
File size : 227 MiB
Duration : 22 min 35 s
Overall bit rate mode : Variable
Overall bit rate : 1 407 kb/s
Video
ID : 1
Format : AVC
Format/Info : Advanced Video Codec
Format profile : [email protected]
Format settings : CABAC / 8 Ref Frames
Format settings, CABAC : Yes
Format settings, RefFrames : 8 frames
Codec ID : avc1
Codec ID/Info : Advanced Video Coding
Duration : 22 min 35 s
Bit rate : 1 240 kb/s
Width : 1 920 pixels
Height : 1 080 pixels
Display aspect ratio : 16:9
Frame rate mode : Variable
Frame rate : 23.976 (24000/1001) FPS
Minimum frame rate : 23.974 FPS
Maximum frame rate : 23.981 FPS
Color space : YUV
Chroma subsampling : 4:2:0
Bit depth : 8 bits
Scan type : Progressive
Bits/(Pixel*Frame) : 0.025
Stream size : 200 MiB (88%)
Writing library : x264 core 148 r2708 86b7198
Audio
ID : 2
Format : AAC
Format/Info : Advanced Audio Codec
Format profile : LC
Codec ID : mp4a-40-2
Duration : 22 min 35 s
Bit rate mode : Variable
Bit rate : 160 kb/s
Channel(s) : 2 channels
Channel positions : Front: L R
Sampling rate : 48.0 kHz
Frame rate : 46.875 FPS (1024 SPF)
Compression mode : Lossy
Stream size : 25.8 MiB (11%)
Title : Stereo / Stereo
Language : English
Text
Language : English
Default : Yes
Forced : No

Images:
https://extraimage.net/images/2018/04/07/4a8d01b019e46c049f00ded2df7430f7.md.png|https://extraimage.net/images/2018/04/07/0214a735f5d2cb374c3510efb7c9f18f.md.png|https://extraimage.net/images/2018/04/07/03a0d1d6fb1130af4873331cd3d9b061.md.png|https://extraimage.net/images/2018/04/07/174350d8a02fc0a4001d4b7852ba4d7b.md.png|https://extraimage.net/images/2018/04/07/963df2e65b5384ece3e4bb3583b03783.md.png

Related at The Lion Guard S02E17 The Scorpions Sting 1080p x264 Phun Psyz:
© 2019 www.gphi.it | Contacts | DMCA | Privacy Policy