» » Claymore Complete - - BVz 720p HEVC x265 Eng Dub
Language: English
Size: 1.5 GB
Rating: 4.4
Category: Anime
Votes: 409
Claymore Complete - - BVz 720p HEVC x265 Eng Dub
Files:
  • Claymore (24).mp4 (89.6 MB)
  • Claymore (1).mp4 (52.1 MB)
  • Claymore (10).mp4 (49.2 MB)
  • Claymore (11).mp4 (51.8 MB)
  • Claymore (12).mp4 (49.2 MB)
  • Claymore (13).mp4 (56.8 MB)
  • Claymore (14).mp4 (43.9 MB)
  • Claymore (15).mp4 (64.7 MB)
  • Claymore (16).mp4 (42.3 MB)
  • Claymore (17).mp4 (46.1 MB)
  • Claymore (18).mp4 (53.0 MB)
  • Claymore (19).mp4 (52.2 MB)
  • Claymore (2).mp4 (47.4 MB)
  • Claymore (20).mp4 (67.5 MB)
  • Claymore (21).mp4 (47.0 MB)
  • Claymore (22).mp4 (67.3 MB)
  • Claymore (23).mp4 (71.0 MB)
  • Claymore (25).mp4 (63.6 MB)
  • Claymore (26).mp4 (64.1 MB)
  • Claymore (27).mp4 (68.0 MB)
  • Claymore (3).mp4 (44.4 MB)
  • Claymore (4).mp4 (44.1 MB)
  • Claymore (5).mp4 (46.9 MB)
  • Claymore (6).mp4 (46.3 MB)
  • Claymore (7).mp4 (52.2 MB)
  • Claymore (8).mp4 (65.4 MB)
  • Claymore (9).mp4 (48.4 MB)
Links & Info
  • AnimeDB.url (0.1 KB)
  • App for Android.url (0.2 KB)
  • App for iDevices.url (0.1 KB)
  • BVz - Bromidic Releases.url (0.1 KB)
  • Claymore - 01.mp4_image_[2015.01.25_22.57.29].jpg (388.9 KB)
  • Claymore - 01.mp4_thumbs_[2015.01.25_22.57.29].jpg (2.2 MB)
  • Cover.jpg (99.0 KB)
  • HEVC - H.265.jpg (519.9 KB)
  • HEVC - H.265.png (62.0 KB)
  • IMDB.url (0.1 KB)
  • K-Lite Codec Pack [Site].url (0.1 KB)
  • More Anime - HEVC-x265 @KAT.url (0.2 KB)
  • VLC Player [Win+Mac].url (0.1 KB)
  • Wallpaper.jpg (758.5 KB)
  • [MediaInfo] - Claymore 01 [720p-HEVC].txt (3.1 KB)


Season 1 Complete 720p HEVC x265 torrent or any other torrent from the Video HD - TV shows Last one is HDTV 720p, i have placed an individual sub for that Cheers !

Download Riverdale Season 1 Complete 720p HEVC x265 torrent or any other torrent from the Video HD - TV shows.

1080p Bluray HEVC Movies. 720p Bluray HEVC Movies. 720p WEB-DL HEVC Movies. Ad Astra 2019 Bluray HEVC 600MB.

Video ID : 1 Format : HEVC Format/Info : High Efficiency Video Coding Format profile : Main Codec ID : hvc1 Codec . Claymore Complete (Eng Dub) - - BVz. Torrent: Claymore Complete (Eng Dub) - - BVz.

Video ID : 1 Format : HEVC Format/Info : High Efficiency Video Coding Format profile : Main Codec ID : hvc1 Codec ID/Info : High Efficiency Video Coding Duration : 22mn 50s Bit rate : 283 Kbps Maximum bit rate : 1 794 Kbps Width : 1 280 pixels Height : 720 pixels Display aspect ratio : 16:9 Frame rate mode : Constant Frame rate : 2. 70 fp. Trackers.

Claymore Complete (Eng Dub) - - BVz. Claymore (24). You cannot download any of those files from here.

The libde265 HEVC enabled release is capable to view HEVC video in 4K Ultra HD resolution at 30 frames per .

The libde265 HEVC enabled release is capable to view HEVC video in 4K Ultra HD resolution at 30 frames per second on a standard Mac. The minimum system requirements for viewing HEVC video in 4K UHD resolution are. Intel Core i7 with 4 cores, running at . GHz. Libde265 has been directly integrated as VLC decoder plugin.

High Efficiency Video Coding (HEVC), also known as . 65 and MPEG-H Part 2, is a video compression standard, designed as a successor to the widely used Advanced Video Coding (AVC, . 64, or MPEG-4 Part 10). In comparison to AVC, HEVC offers from 25%. In comparison to AVC, HEVC offers from 25% to 50% better data compression at the same level of video quality, or substantially improved video quality at the same bit rate.

NOTE: You must have a software decoder for H.265.
I recommend installing K-Lite CodecPack Basic...

Simple, Easy, Effective.

Don't Leech and Run... Share what is given.

**************************************************************************************************

BEFORE Downloading! I must alert that this is the English version and with that version Rocky will mostly kill this great anime with his bitchy little voice.
YOU have been Warned!

::AnimeDB::
::MediaInfo::
General
Format : hvc1
Codec ID : hvc1
File size : 52.1 MiB
Duration : 22mn 50s
Overall bit rate mode : Variable
Overall bit rate : 319 Kbps
Movie name : Claymore
Genre : Anime
Writing application : Hybrid 2014.12.05.1
Comment : ReEnc - BVz
Video
ID : 1
Format : HEVC
Format/Info : High Efficiency Video Coding
Format profile : Main [email protected]
Codec ID : hvc1
Codec ID/Info : High Efficiency Video Coding
Duration : 22mn 50s
Bit rate : 283 Kbps
Maximum bit rate : 1 794 Kbps
Width : 1 280 pixels
Height : 720 pixels
Display aspect ratio : 16:9
Frame rate mode : Constant
Frame rate : 29.970 fps
Color space : YUV
Chroma subsampling : 4:2:0
Bit depth : 10 bits
Bits/(Pixel*Frame) : 0.010
Stream size : 46.3 MiB (89%)
Title : ReEnc - BVz
Writing library : x265 1.4+174-35d086074bb5:[Windows][GCC 4.9.2][64 bit] 16bpp
Encoding settings : wpp / ctu=64 / tu-intra-depth=1 / tu-inter-depth=1 / me=2 / subme=3 / merange=57 / rect / no-amp / max-merge=3 / temporal-mvp / no-early-skip / no-fast-cbf / rdpenalty=0 / no-tskip / no-tskip-fast / strong-intra-smoothing / no-lossless / no-cu-lossless / no-constrained-intra / no-fast-intra / open-gop / interlace=0 / keyint=250 / min-keyint=25 / scenecut=40 / rc-lookahead=25 / bframes=4 / bframe-bias=2 / b-adapt=2 / ref=4 / weightp / weightb / aq-mode=1 / aq-strength=1.00 / cbqpoffs=0 / crqpoffs=0 / rd=4 / psy-rd=0.00 / psy-rdoq=0.00 / signhide / lft / sao / no-sao-non-deblock / b-pyramid / cutree / rc=crf / crf=26.0 / qcomp=0.60 / qpmin=0 / qpmax=51 / qpstep=4 / ipratio=1.70 / pbratio=1.30
Matrix coefficients : BT.709
Color range : Limited
Audio
ID : 2
Format : AAC
Format/Info : Advanced Audio Codec
Format profile : HE-AACv2 / HE-AAC / LC
Codec ID : 40
Duration : 22mn 50s
Bit rate mode : Variable
Bit rate : 32.0 Kbps
Maximum bit rate : 41.3 Kbps
Channel(s) : 2 channels / 1 channel / 1 channel
Channel positions : Front: L R / Front: C / Front: C
Sampling rate : 44.1 KHz / 44.1 KHz / 22.05 KHz
Compression mode : Lossy
Stream size : 5.23 MiB (10%)
Title : ReEnc - BVz

Images:
//kickass.so/userwidget/BVz-Bromidic.png|http://blog.allstream.com/wp-content/uploads/2013/05/HEVC-Allstream-expertIP.jpg

Related at Claymore Complete - - BVz:
© 2019 www.gphi.it | Contacts | DMCA | Privacy Policy