» » Hunter x Hunter -jnx r AnimeKayo BD 1080p HEVC Dual Audio
Language: English
Size: 33.7 GB
Rating: 4.0
Category: Anime
Votes: 076
Hunter x Hunter -jnx r AnimeKayo BD 1080p HEVC Dual Audio
Files:


All categories Anime - Anime Music Video - English-translated - ed - Raw Audio - Lossless - Lossy . Hunter x Hunter (2011) Ep 001 1080p BD Dual Audio HEVC .mkv (23. MiB).

All categories Anime - Anime Music Video - English-translated - ed - Raw Audio - Lossless - Lossy Literature - English-translated - ed - Raw Live Action - English-translated - Idol/Promotional Video - ed - Raw Pictures - Graphics - Photos Software - Applications - Games. Hunter x Hunter ~jnx r. Category: Anime - English-translated.sfv (191 Bytes).

Download Hunter x Hunter 1080p Dual Audio. By Marshall On Jun 15, 2019 Last updated Oct 29, 2019 4,881. Hunter x Hunter (2011) 1080p BD Dual Audio HEVC.

Hunter x Hunter ~jnx r. Follow. Fore more, visit: Please seed.

Anime Kaizoku By: Anime Kaizoku. co/zakOmUQU8O encoded anime. Hunter x Hunter 2011 720p BD Dual Audio HEVC . o/b2Y0Deo5mb . o/zakOmUQU8O encoded anime (via Twitter twitter.

Please select an amount (minimum 5 USD). Donate with a payment method. Choose a payment method. Select a payment method. lock Your payment will be securely processed.

Torrent Number: 1345151.

Hunter x Hunter (2011) Ep 001 1080p BD Dual Audio HEVC .mkv231 MB.

info -Hunter-x-Hunter- jnx-r Anime. Hunter x Hunter (2011) Ep 005 1080p BD Dual Audio HEVC .mkv227 MB. Hunter x Hunter (2011) Ep 014 1080p BD Dual Audio HEVC . Hunter x Hunter (2011) Ep 015 1080p BD Dual Audio HEVC .mkv224 MB.

Love Hina/ Love Hina - 10 .mkv. Anime Tosho provides a mirror of torrents and is not the source.

Monster Musume no Iru Nichijou (2015) (1080p BD Dual Audio x265 10bit). 11. Toradora! (2008) (1080p BD x265 10bit Dual Audio).

mkv, mp4, etc) is encouraged but not necessary. Monster Musume no Iru Nichijou (2015) (1080p BD Dual Audio x265 10bit). 5. Soul Eater (S01) (720p) (Sub). Welcome to Reddit, the front page of the internet.

==============
[AnimeKayo.com]
==============
General
Unique ID : 339581380974035663300563009557391219753 (0xFF78FEB97649E0AC428DB0020E041C29)
Complete name : [AnimeKayo] Hunter x Hunter [BD 1080p HEVC Dual Audio] ~jnx_r1. Hunter Exam Arc (001-026)[AnimeKayo] Hunter x Hunter Ep 001 1080p BD Dual Audio HEVC [Marshall] [15A6E88A].mkv
Format : Matroska
Format version : Version 4
File size : 231 MiB
Duration : 23 min 35 s
Overall bit rate : 1 370 kb/s
Encoded date : UTC 2019-06-11 04:56:40
Writing application : mkvmerge v31.0.0 (‘Dolores In A Shoestand’) 64-bit
Writing library : libebml v1.3.6 + libmatroska v1.4.9
Attachments : 09_25_51_1810_AlegreyaSansSC-Black.ttf / 09_25_51_1810_AlegreyaSansSC-BlackItalic.ttf / 09_25_51_1810_ariblk.ttf / 09_25_51_1810_ARLRDBD.TTF / 09_25_51_1810_GandhiSans-Bold.otf / 09_25_51_1810_GandhiSans-BoldItalic.otf / 09_25_51_1810_HunterxHunterOP.ttf / 09_25_51_1810_Nicotine Stains.ttf / 09_25_51_1810_Prototype.ttf
Encoding Gui : Hybrid 2019.03.13.1
Video
ID : 1
Format : HEVC
Format/Info : High Efficiency Video Coding
Format profile : Main [email protected]@Main
Codec ID : V_MPEGH/ISO/HEVC
Duration : 23 min 35 s
Bit rate : 1 112 kb/s
Width : 1 920 pixels
Height : 1 080 pixels
Display aspect ratio : 16:9
Frame rate mode : Constant
Frame rate : 23.976 (24000/1001) FPS
Color space : YUV
Chroma subsampling : 4:2:0
Bit depth : 10 bits
Bits/(Pixel*Frame) : 0.022
Stream size : 188 MiB (81%)
Writing library : x265 3.0_Au+14-c7e5878bdd31:[Windows][GCC 8.3.0][64 bit] 10bit
Encoding settings : cpuid=1111039 / frame-threads=3 / numa-pools=12 / wpp / no-pmode / no-pme / no-psnr / no-ssim / log-level=2 / input-csp=1 / input-res=1920x1080 / interlace=0 / total-frames=0 / level-idc=0 / high-tier=1 / uhd-bd=0 / ref=4 / no-allow-non-conformance / no-repeat-headers / annexb / no-aud / no-hrd / info / hash=0 / no-temporal-layers / open-gop / min-keyint=23 / keyint=250 / gop-lookahead=0 / bframes=4 / b-adapt=2 / b-pyramid / bframe-bias=0 / rc-lookahead=25 / lookahead-slices=4 / scenecut=40 / radl=0 / no-splice / no-intra-refresh / ctu=64 / min-cu-size=8 / rect / no-amp / max-tu-size=32 / tu-inter-depth=1 / tu-intra-depth=1 / limit-tu=0 / rdoq-level=2 / dynamic-rd=0.00 / no-ssim-rd / signhide / no-tskip / nr-intra=0 / nr-inter=0 / no-constrained-intra / strong-intra-smoothing / max-merge=3 / limit-refs=3 / limit-modes / me=3 / subme=3 / merange=57 / temporal-mvp / weightp / no-weightb / no-analyze-src-pics / deblock=0:0 / sao / no-sao-non-deblock / rd=3 / no-early-skip / rskip / no-fast-intra / no-tskip-fast / no-cu-lossless / no-b-intra / no-splitrd-skip / rdpenalty=0 / psy-rd=2.00 / psy-rdoq=1.00 / no-rd-refine / no-lossless / cbqpoffs=0 / crqpoffs=0 / rc=crf / crf=23.0 / qcomp=0.60 / qpstep=4 / stats-write=0 / stats-read=0 / ipratio=1.40 / pbratio=1.30 / aq-mode=2 / aq-strength=1.00 / cutree / zone-count=0 / no-strict-cbr / qg-size=32 / no-rc-grain / qpmax=69 / qpmin=0 / no-const-vbv / sar=0 / overscan=0 / videoformat=5 / range=0 / colorprim=2 / transfer=2 / colormatrix=1 / chromaloc=0 / display-window=0 / max-cll=0,0 / min-luma=0 / max-luma=1023 / log2-max-poc-lsb=8 / vui-timing-info / vui-hrd-info / slices=1 / no-opt-qp-pps / no-opt-ref-list-length-pps / no-multi-pass-opt-rps / scenecut-bias=0.05 / no-opt-cu-delta-qp / no-aq-motion / no-hdr / no-hdr-opt / no-dhdr10-opt / no-idr-recovery-sei / analysis-reuse-level=5 / scale-factor=0 / refine-intra=0 / refine-inter=0 / refine-mv=0 / refine-ctu-distortion=0 / no-limit-sao / ctu-info=0 / no-lowpass-dct / refine-analysis-type=0 / copy-pic=1 / max-ausize-factor=1.0 / no-dynamic-refine / no-single-sei / no-hevc-aq / no-svt / qp-adaptation-range=1.00
Language : Japanese
Default : Yes
Forced : Yes
Color range : Limited
Matrix coefficients : BT.709
Audio #1
ID : 2
Format : Opus
Codec ID : A_OPUS
Duration : 23 min 35 s
Bit rate : 124 kb/s
Channel(s) : 2 channels
Channel layout : L R
Sampling rate : 48.0 kHz
Frame rate : 50.000 FPS (960 SPF)
Compression mode : Lossy
Stream size : 20.9 MiB (9%)
Title : FLAC 2.0 [Etzimal]
Language : English
Default : Yes
Forced : No
Audio #2
ID : 3
Format : Opus
Codec ID : A_OPUS
Duration : 23 min 35 s
Bit rate : 124 kb/s
Channel(s) : 2 channels
Channel layout : L R
Sampling rate : 48.0 kHz
Frame rate : 50.001 FPS (960 SPF)
Compression mode : Lossy
Stream size : 20.9 MiB (9%)
Title : FLAC 2.0 [Coalgirls]
Language : Japanese
Default : No
Forced : No
Text #1
ID : 4
Format : ASS
Codec ID : S_TEXT/ASS
Codec ID/Info : Advanced Sub Station Alpha
Duration : 23 min 27 s
Bit rate : 114 b/s
Count of elements : 366
Compression mode : Lossless
Stream size : 19.7 KiB (0%)
Language : Japanese
Default : No
Forced : No
Text #2
ID : 5
Format : ASS
Codec ID : S_TEXT/ASS
Codec ID/Info : Advanced Sub Station Alpha
Duration : 23 min 13 s
Bit rate : 30 b/s
Count of elements : 80
Compression mode : Lossless
Stream size : 5.16 KiB (0%)
Language : English
Default : Yes
Forced : No
Menu
00:00:00.000 : en:Opening
00:01:19.997 : en:Part A
00:10:54.988 : en:Part B
00:22:00.027 : en:Ending
00:23:20.024 : en:Preview
regards,
~jnx_r

Images:

Related at Hunter x Hunter -jnx r:
Comments 5
Braswyn
Ohh man ....TYSM..
Xanzay
Can u please upload Black Clover in dual audio..thanks
Magis
Are those .sfv files necessary after download?
Alsalar
thank you, ur the best
Gosar
@kyzer in case you want to store the files and check them for integrity later on, then yes. Not needed for one time viewing.
© 2019 www.gphi.it | Contacts | DMCA | Privacy Policy