» » Charlie Browns All Stars 1080p DD5 1 - 2 0 x264 Phun Psyz 1966
Language: English
Size: 223.6 MB
Rating: 4.7
Category: Anime
Votes: 502
Charlie Browns All Stars 1080p DD5 1 - 2 0 x264 Phun Psyz 1966
Files:
  • Charlie Browns All Stars (1966) 1080p DD5.1 - 2.0 x264 Phun Psyz.mp4 (223.6 MB)


When his team is offered membership in the Little League, Charlie Brown finds he must make a difficult moral decision. Source: FGT (4K) (. 6 GiB)

When his team is offered membership in the Little League, Charlie Brown finds he must make a difficult moral decision. 6 GiB).

Скачать с помощью Mediaget. com/What Men Want p . - . x264 Phun Psyz.

the boys s01e03 480p x264 msd eztv. 34 minutes ago. amjad ali khan. wwe hell in a cell 2019 ppv web h264 heel. yify italian 720p 1080p Hindi 480p french x264.

Related news: Patrick 2018 BluRay 1080p DTS x264-CHD. None of the files shown here are hosted or transmitted by this server. The administrator of this site (dl4all. ws) cannot be held responsible for what its users post, or any other actions of its users.

Direct Download Free Movies Mp3's Software Programs Stock Images MOVIES Black Site p 5 1 2 0. .The LEGO Movie 2 The Second Part p 5 1 - 2 0 x264 Phun Psyz.

Direct Download Free Movies Mp3's Software Programs Stock Images MOVIES Black Site p 5 1 2 0 x264 Phun Psyz. Black Site p 5 1 2 0 x264 Phun Psyz. An elite military unit encounters a supernatural entity, known as The Elder Gods, that forces them into battle against an army from another world. com/The Ghoul p DD.

As his therapy sessions continue the line between fantasy and reality begins to blur. Скачать с помощью Mediaget.

Similar Threads for: The Prodigy (2019) x 796 (1080p) 5 1 - 2 0 x264 Phun Psyz.

It was the second such TV special (following A Charlie Brown Christmas) to be produced by Lee Mendelson and Bill Melendez (who also directed), and originally aired on CBS on June 8, 1966. It ceased to be aired annually by 1971, and was last shown on CBS on April 3, 1982 (although Disney Channel and Nickelodeon aired reruns of the special in the 1990s).

www.imdb.com/title/tt0060230/
When his team is offered membership in the Little League, Charlie Brown finds he must make a difficult moral decision.
Source: FGT (4K) (8.76 GiB)

Format : MPEG-4
Format profile : Base Media / Version 2
Codec ID : mp42 (isom/iso2/avc1/mp41)
File size : 224 MiB
Duration : 25 min 8 s
Overall bit rate mode : Variable
Overall bit rate : 1 244 kb/s
Video
ID : 1
Format : AVC
Format/Info : Advanced Video Codec
Format profile : [email protected]
Format settings : CABAC / 8 Ref Frames
Format settings, CABAC : Yes
Format settings, RefFrames : 8 frames
Codec ID : avc1
Codec ID/Info : Advanced Video Coding
Duration : 25 min 8 s
Bit rate : 757 kb/s
Width : 1 920 pixels
Height : 1 080 pixels
Display aspect ratio : 16:9
Frame rate mode : Variable
Frame rate : 23.976 (24000/1001) FPS
Minimum frame rate : 23.974 FPS
Maximum frame rate : 23.981 FPS
Color space : YUV
Chroma subsampling : 4:2:0
Bit depth : 8 bits
Scan type : Progressive
Bits/(Pixel*Frame) : 0.015
Stream size : 136 MiB (61%)
Writing library : x264 core 148 r2708 86b7198
Audio #1
ID : 2
Format : AC-3
Format/Info : Audio Coding 3
Format settings, Endianness : Big
Codec ID : ac-3
Duration : 25 min 8 s
Bit rate mode : Constant
Bit rate : 320 kb/s
Channel(s) : 6 channels
Channel positions : Front: L C R, Side: L R, LFE
Sampling rate : 48.0 kHz
Frame rate : 31.250 FPS (1536 SPF)
Bit depth : 16 bits
Compression mode : Lossy
Stream size : 57.5 MiB (26%)
Title : Surround / Surround
Language : English
Audio #2
ID : 3
Format : AAC
Format/Info : Advanced Audio Codec
Format profile : LC
Codec ID : mp4a-40-2
Duration : 25 min 8 s
Bit rate mode : Variable
Bit rate : 160 kb/s
Channel(s) : 2 channels
Channel positions : Front: L R
Sampling rate : 48.0 kHz
Frame rate : 46.875 FPS (1024 SPF)
Compression mode : Lossy
Stream size : 28.7 MiB (13%)
Title : Stereo / Stereo
Language : English
Menu
00:00:00.000 : Chapter 1
00:01:06.149 : Chapter 2
00:07:37.082 : Chapter 3
00:12:11.272 : Chapter 4
00:23:29.950 : Chapter 5

Images:
https://extraimage.net/images/2018/03/13/e612012ef6c5e9a20cb1c754fb90e469.md.png|https://extraimage.net/images/2018/03/13/bf99822e9044b2b68f4df1986819b6bd.md.png|https://extraimage.net/images/2018/03/13/e7faff4d30a94bdbd27a992cdee1ef00.md.png|https://extraimage.net/images/2018/03/13/185082fc1f38ec3c6a35cd87bd0bc1c0.md.png|https://extraimage.net/images/2018/03/13/79417630308b63f97db82d9fd9d2f44b.md.png

Related at Charlie Browns All Stars 1080p DD5 1 - 2 0 x264 Phun Psyz:
© 2019 www.gphi.it | Contacts | DMCA | Privacy Policy