» » Pokemon S19E08 - A Dancing Debut 720p x264 -ARIZONE
Language: English
Size: 69.3 MB
Rating: 4.6
Category: Anime
Votes: 478
Pokemon S19E08 - A Dancing Debut 720p x264 -ARIZONE
Files:
  • INFO.txt (2.8 KB)
  • ARIZONE.jpg (334.4 KB)
  • Pokemon XYZ Episode 08 [English Dubbed] 720p ~ARIZONE.mp4 (68.9 MB)


Season 19 Episode 8. A Dancing Debut! Serena, her friend Nini, and Jessilee (Team Rocket’s Jessie in disguise) are .

Season 19 Episode 8. A Dancing Debut! Serena, her friend Nini, and Jessilee (Team Rocket’s Jessie in disguise) are competing in the Couriway Pokémon Showcase! The first round is a Poké Puff Performance, and it’s more than just a bake-off-the performers have to put on a show while creating their treats. Then, it’s on to the Freestyle Performance and Eevee’s Showcase debut! Serena and Eevee dance together as Braixen spins a ring of fire around them, and as a finishing move, Eevee leaps gracefully onto Braixen’s flaming branch! But as the audience erupts in cheers, Eevee gets nervous and loses.

Anime Tosho Home Pocket Monsters XY&Z 8, A Dancing Debut! . .Pocket Monsters XY&Z - Episode 8 (of 47): A Dancing Debut!

Pocket Monsters XY&Z - Episode 8 (of 47): A Dancing Debut! Tracker(s).

Pokemon XYZ. Season 19 episode 08. A Dancing Debut. jpg (33. KB). Pokemon XYZ Episode 08 720p ~ARIZONE. Feel free to leave one

The adventures of Ash Ketchum and his partner Pikachu, who travel across many regions in hopes of being regarded as a Pokemon master.

The adventures of Ash Ketchum and his partner Pikachu, who travel across many regions in hopes of being regarded as a Pokemon master. The adventures of Ash Ketchum and his partner Pikachu, who travel across many regions in hopes of being regarded as a Pokemon master.

Torrent File: Pokemon. File Format: MKV (Matroska) Resolution: 1280x720 px Aspect Ratio: 16:9. S. L. Pokemon S19E08 DUBBED HDTV x264-W4F. 0. 1. Pokémon S19E08 - A Dancing Debut! Summary: Our heroes are in Couriway Town for Serena's next Pokémon Showcase, and her third Princess Key win is at stake! Pokémon S19E8 Screenshot.

A page for describing Recap: Pokémon S19E8 "A Dancing Debut!". Abhorrent Admirer: Nini's Smoochum has a thing for Pancham. Recap, Pokémon S19E8 "A Dancing Debut!" Go To.

June 5, 2016, 9:41 . Related Resources . GB. David.

S19E08 A Dancing Debut! Summary. Pokemon Show Summary. A young boy named Ash Ketchum embarks on a journey to become a "Pokemon Master" with his first Pokemon, Pikachu. Serena enters the Couriway Town Showcase keen to win her third key using Eevee in its debut but Nini and Jessie are also entering Pokemon Show Summary. Joining him on his travels are Brock, a girl-obsessed Rock Pokemon Trainer, and Misty, a tomboyish Water Pokemon Trainer who may have a crush on him.




Pokemon XYZ
Season 19 episode 08
A Dancing Debut


Quote:

[center]
Format : MPEG-4
Format profile : Base Media
Codec ID : isom (isom/avc1)
File size : 69.0 MiB
Duration : 20mn 48s
Overall bit rate mode : Variable
Overall bit rate : 463 Kbps
Movie name : S19E08 - A Dancing Debut ~ARIZONE

[spoiler="VIDEO / AUDIO"]

Quote:


Format : AVC
Format/Info : Advanced Video Codec
Format profile : [email protected]
Format settings, CABAC : Yes
Format settings, ReFrames : 6 frames
Codec ID : avc1
Codec ID/Info : Advanced Video Coding
Duration : 20mn 48s
Bit rate : 420 Kbps
Maximum bit rate : 2 975 Kbps
Width : 1 280 pixels
Height : 720 pixels
Display aspect ratio : 16:9
Frame rate mode : Constant
Frame rate : 23.976 (24000/1001) fps
Color space : YUV
Chroma subsampling : 4:2:0
Bit depth : 8 bits
Scan type : Progressive
Bits/(Pixel*Frame) : 0.019
Stream size : 62.6 MiB (91%)
Writing library : x264 core 146 r2538 121396c
AUDIO
Format : AAC
Format/Info : Advanced Audio Codec
Format profile : HE-AAC / LC
Codec ID : 40
Duration : 20mn 48s
Bit rate mode : Variable
Bit rate : 40.0 Kbps
Maximum bit rate : 45.5 Kbps
Channel(s) : 2 channels
Channel positions : Front: L R
Sampling rate : 48.0 KHz / 24.0 KHz
Frame rate : 23.438 fps (1024 spf)
Compression mode : Lossy
Stream size : 5.95 MiB (9%)

[/spoiler][/spoiler]



Images:
http://s22.postimg.org/j03lusd4h/ARIZONE.jpg|http://s17.postimg.org/f5dab37pb/vlcsnap_2016_02_21_19h45m10s056.jpg|http://s13.postimg.org/5igit2e7b/screenshot.jpg|https://s23.postimg.org/rt2v8n32z/vlcsnap-2016-04-11-21h44m21s517.jpg|https://s23.postimg.org/7zqrfxpp7/vlcsnap-2016-04-10-09h36m40s854.jpg|https://s23.postimg.org/dp7008vvf/vlcsnap-2016-04-10-09h36m36s123.jpg|https://s23.postimg.org/7pj8wlb2z/vlcsnap-2016-04-10-09h36m23s548.jpg|http://imgchicken.com/images/01047296100867101552.jpg

Related at Pokemon S19E08 - A Dancing Debut 720p x264 -ARIZONE:
© 2019 www.gphi.it | Contacts | DMCA | Privacy Policy