» » The Lion Guard S02E15 The Little Guy 1080p x264 Phun Psyz
Language: English
Size: 180.5 MB
Rating: 4.1
Category: Anime
Votes: 660
The Lion Guard S02E15 The Little Guy 1080p x264 Phun Psyz
Files:
  • The Lion Guard S02E15 The Little Guy 1080p x264 Phun Psyz.mp4 (180.5 MB)


The Lion Guard S02E15 - The Little Guy. Adventure Time.

The Lion Guard S02E15 - The Little Guy.

The Lion Guard S02E11 The Bite of Kenge 1080p x264 Phun Psyz. Posted in TV. 15. 4 MB.

The Lion Guard S02E15 The Little Guy 1080p x264 Phun Psyz. You cannot download any of those files from here. adult comics 0s, bharat 2019 1s, malayalam new 2019 3s, title: Agents of SHIELD S06E07 3s, shadow of tht tomb raider 3s, Hindi movies 1s, partyhardcore 0s, bar rescue S06E11 0s, zezia 0s, secret 4s. 03s.

The Lion Guard is an American animated television series developed by Ford Riley and based on Disney's 1994 film The Lion King

The Lion Guard is an American animated television series developed by Ford Riley and based on Disney's 1994 film The Lion King. The series was first broadcast with a television film titled The Lion Guard: Return of the Roar on Disney Junior on November 22, 2015 and began airing as a TV series on January 15, 2016 on Disney Junior. It is the second television series to be based on The Lion King, the first being Timon & Pumbaa.

If the content above is not authorized, please contact us via contactp2bt. Remember to include the full url in your complaint. All resources are automatically indexed from the DHT network. Instead of torrent files, we store meta information only for indexing.

Internet Archive HTML5 Uploader .

Watch the lion guard season 2 2017 online free in high quality Full HD 1080p, 720p

Watch the lion guard season 2 2017 online free in high quality Full HD 1080p, 720p. Watch The Lion Guard - Season 2 (2017) tv-series/movies online for free, Free movie the lion guard season2 2017 with English Subtitles, Watch The Lion Guard - Season 2 (2017) full movie, Watch The Lion Guard - Season 2 (2017) in HD quality online for free, putlocker The Lion Guard - Season 2 (2017), xmovies8 The Lion Guard - Season 2 (2017), download The. Lion Guard - Season 2 (2017), watch The Lion Guard - Season 2 (2017) with HD streaming, The Lion Guard - Season 2 (2017) fmovies, google drive The Lion Guard - Season 2 (2017).

Watch The Lion Guard - Season 2 (2017) Online Free on Xmovies8. Kion, the son of Simba, leads his friends known as the Lion Guard to protect the Pride Lands. Watch the lion guard season 2 2017 online free on Xmovies8, xmovies8. tv official site moved to xmovies8.

The Lion Guard 2 сезон, 15 серия. The Little Guy. Beshte befriends Hodari, a tiny gecko who wants to be a crocodile. Fire from the Sky. Reactions.

www.imdb.com/title/tt5991510/?ref_=ttep_ep15
Beshte befriends Hodari the gecko who wants to be a crocodile.
Source: Lazy (846 MiB)

Format : MPEG-4
Format profile : Base Media / Version 2
Codec ID : mp42 (isom/iso2/avc1/mp41)
File size : 180 MiB
Duration : 22 min 35 s
Overall bit rate mode : Variable
Overall bit rate : 1 117 kb/s
Video
ID : 1
Format : AVC
Format/Info : Advanced Video Codec
Format profile : [email protected]
Format settings : CABAC / 8 Ref Frames
Format settings, CABAC : Yes
Format settings, RefFrames : 8 frames
Codec ID : avc1
Codec ID/Info : Advanced Video Coding
Duration : 22 min 35 s
Bit rate : 951 kb/s
Width : 1 920 pixels
Height : 1 080 pixels
Display aspect ratio : 16:9
Frame rate mode : Variable
Frame rate : 23.976 (24000/1001) FPS
Minimum frame rate : 23.974 FPS
Maximum frame rate : 23.981 FPS
Color space : YUV
Chroma subsampling : 4:2:0
Bit depth : 8 bits
Scan type : Progressive
Bits/(Pixel*Frame) : 0.019
Stream size : 154 MiB (85%)
Writing library : x264 core 148 r2708 86b7198
Audio
ID : 2
Format : AAC
Format/Info : Advanced Audio Codec
Format profile : LC
Codec ID : mp4a-40-2
Duration : 22 min 35 s
Bit rate mode : Variable
Bit rate : 160 kb/s
Channel(s) : 2 channels
Channel positions : Front: L R
Sampling rate : 48.0 kHz
Frame rate : 46.875 FPS (1024 SPF)
Compression mode : Lossy
Stream size : 25.8 MiB (14%)
Title : Stereo / Stereo
Language : English
Text
ID : 3
Format : Timed Text
Muxing mode : sbtl
Codec ID : tx3g
Duration : 22 min 7 s
Bit rate mode : Variable
Bit rate : 129 b/s
Stream size : 20.9 KiB (0%)
Language : English
Default : Yes
Forced : No
Reposted for indexing purposes

Images:
https://extraimage.net/images/2018/01/15/77be9e14e27d449a4ec0e2daf7dbf6c7.jpg

Related at The Lion Guard S02E15 The Little Guy 1080p x264 Phun Psyz:
© 2019 www.gphi.it | Contacts | DMCA | Privacy Policy