» » Pokemon S02e21-25
Language: Italian
Size: 1,004.5 MB
Rating: 4.5
Category: Anime
Votes: 268
Pokemon S02e21-25
Files:
  • Pokemon.2x21.Ghiaccio.e.fuoco.avi (193.3 MB)
  • Pokemon.2x22.Una.nuova.vittoria.avi (206.6 MB)
  • Pokemon.2x23.Chi.trova.un.amico.trova.un.tesoro.avi (198.8 MB)
  • Pokemon.2x24.Amici.nemici.avi (199.4 MB)
  • Pokemon.2x25.Amici.per.sempre.avi (206.4 MB)


Продолжительность: 21:25 Olpen Recommended for yo. Страна: США. Безопасный режим: выкл.

Продолжительность: 21:25 Olpen Recommended for you. 21:25. MONSTER SCHOOL : BALDI TEMPLE RUN CHALLENGE WITH BABIES - BEST MINECRAFT ANIMATION - Продолжительность: 28:03 XDJames Recommended for you. 28:03 22:25.

Pokémon Season: 21. When Ash sees the Legendary Pokémon Solgaleo and Lunala in a dream, he makes a promise to them. But when he wakes up, he can’t remember what it was!

Pokémon Season: 21. But when he wakes up, he can’t remember what it was! Will the strange Pokémon called Nebby help jog his memory? Along with their new friend and the rest of the students at the Pokémon School, Ash and Pikachu explore the Aether Foundation, an organization dedicated to Pokémon conservation and care.

Let Sleeping Pokémon Lie! The Professors' New Adventure! S21 E12 21m.

Pokemon S01 E02 for pokemon fans. 2 July ·. A gift for my pokemon friend. Pokemon SE1 EP002 - Pokémon - Emergency! (English) Many more is coming Friend if you want the complete season, send me a message

Pokemon S01 E02 for pokemon fans. Pokemon SE1 EP002 - Pokémon - Emergency! (English) Many more is coming Friend if you want the complete season, send me a message TP 1 Cap 11. PokeFanz. 90K views · 30 August 2018.

Catching 'em all since '96. Galar region or bust! Customer Service:Подписчиков: 5 млн

February 25, 1999 (1999-02-25). Pokémon Mystery Dungeon: Team Go-Getters Out Of The Gate!"

February 25, 1999 (1999-02-25). A Hurdle for Squirtle" (Pokémon Contest – Yamabuki Tournament!! ) Transcription: "Pokemon Kontesuto, Yamabuki Taikai!! (Kōhen)" (Japanese: ポケモンコンテスト・ヤマブキ大会!! (後編)). Pokémon Mystery Dungeon: Team Go-Getters Out Of The Gate!"

Last time, Houndoom proved its superiority in doge by defeating his electric counterpart Manectric

Last time, Houndoom proved its superiority in doge by defeating his electric counterpart Manectric. This week, two Pixie Pokemon come into the arena to battle it out over which is Pixie Power! It’s the Voice of the Forest vs the Prince of the Sea; Celebi vs Manaphy! Pokemon. It has a round head that comes to a curved point. It has large baby-blue eyes with thick black rings around them, and a pair of green antennae with blue tips.

Pokemon serie 2
Oltre i cieli dell'avventura


Titolo Italiano: Pokemon - Oltre i cieli dell'avventura
Titolo Originale: Pokémon World
Nazione: Giappone
Stagione: 2
Anno: 2000
Numero episodi: 61 (divisi in 12 pack)
Durata episodio: 19 min. circa
Trama
La seconda stagione, chiamata Pocket Monsters Advanced Generation, è completamente ambientata ad Hoenn e, per un breve periodo, al Parco Lotta di Kanto. In questa regione Ash cattura vari Pokémon della terza generazione, tra cui Snorunt, Treecko e Taillow, che in seguito si evolveranno, rispettivamente, in Glalie, Sceptile e Swellow. Tra gli altri Pokémon catturati ricordiamo Corphish, Torkoal e Aipom. In questa serie Ash fa da insegnante e mentore a Vera, una giovane allenatrice. Insieme a loro viaggia Max, fratello minore di Vera, molto preparato sui Pokémon, ma ancora troppo giovane per essere un allenatore. Brock ritorna a far parte del gruppo, invece Misty si reca a Cerulean City per aiutare le sorelle nella palestra di famiglia. Questa saga è basata sulla terza generazione.
Scheda tecnica del pack
Dimensione: 1 GB circa
Serie ed episodi: s02 e06-10
Fonte: TVrip
Video Codec: MPEG-4 Visual (DivX 5) (Packed bitstream) (BVOP)
Video BitRate: 1300 Kbps
Audio: 128 Kbps, 48.0 KHz, 2 channels, MPEG Audio (MP3) (Version 1) (Layer 3) (Dual mono)
Risoluzione: 600*438 (1.370), at 25.000 fps
Screenshot

Screenshot non riscalato del video

Elenco episodi contenuti nel torrent
21 Ghiaccio e fuoco
22 Una nuova vittoria
23 Chi trova un'amico trova un tesoro
24 Amici nemici
25 Amici per sempre
Report tecnico del file
General
Format : AVI
Format/Info : Audio Video Interleave
File size : 199 MiB
Duration : 19mn 18s
Overall bit rate : 1 438 Kbps
Video
ID : 0
Format : MPEG-4 Visual
Format settings, BVOP : Yes
Format settings, QPel : No
Format settings, GMC : No warppoints
Format settings, Matrix : Default (H.263)
Muxing mode : Packed bitstream
Codec ID : DX50
Codec ID/Hint : DivX 5
Duration : 19mn 18s
Bit rate : 1 300 Kbps
Width : 600 pixels
Height : 438 pixels
Display aspect ratio : 1.370
Frame rate : 25.000 fps
Color space : YUV
Chroma subsampling : 4:2:0
Bit depth : 8 bits
Scan type : Progressive
Compression mode : Lossy
Bits/(Pixel*Frame) : 0.198
Stream size : 180 MiB (90%)
Title : Video
Writing library : DivX 2376
Audio
ID : 1
Format : MPEG Audio
Format version : Version 1
Format profile : Layer 3
Mode : Dual mono
Codec ID : 55
Codec ID/Hint : MP3
Duration : 19mn 18s
Bit rate mode : Constant
Bit rate : 128 Kbps
Channel(s) : 2 channels
Sampling rate : 48.0 KHz
Compression mode : Lossy
Stream size : 17.7 MiB (9%)
Alignment : Split accross interleaves
Interleave, duration : 40 ms (1.00 video frame)
Interleave, preload duration : 500 ms
Title : Audio
Writing library : LAME3.92

Images:
http://img607.imageshack.us/img607/5027/pok02200.jpg|http://img826.imageshack.us/img826/888/pok201.png|http://img818.imageshack.us/img818/9898/pok202.png|http://img222.imageshack.us/img222/5359/pok203.png

Related at Pokemon S02e21-25 :
© 2019 www.gphi.it | Contacts | DMCA | Privacy Policy