» » Naruto Shippuudden 302 480p 10BiT gWc
Language: Japanese
Size: 54.3 MB
Rating: 4.5
Category: Anime
Votes: 257
Naruto Shippuudden 302 480p 10BiT gWc
Files:
  • Naruto.Shippuuden.Ep-302.480p.10BiT[gWc].mkv (54.3 MB)


mkv torrent or any other torrent from the Video TV shows. Details for this torrent.

mkv torrent or any other torrent from the Video TV shows. Type: Video TV shows.

Batches usually contain the latest version of the subs, so grab these! 10/29/15 Naruto Shippuuden 80-426SD720p1080p. 03/23/17 Naruto Shippuuden 500SD720p1080p. 480p: Magnet Torrent Uploaded. net FileUpload Uplod. 720p: Magnet Torrent Uploaded. 1080p: Magnet Torrent Uploaded. 10/29/15 Naruto Shippuuden 01-79SD. 480p: Magnet Torrent XDCC

Synonyms: Naruto Shippuuden (main),Naruto: Hurricane Chronicles (synonym),Naruto Shippuuden TV. .Download: Naruto Shippuuden 16 (480p).

Synonyms: Naruto Shippuuden (main),Naruto: Hurricane Chronicles (synonym),Naruto Shippuuden TV (synonym),n2 (short),ntv2 (short),n2tv (short),nstv (short),Naruto 2 (short),Shippuuden (short),Naruto Shippuden (official),Naruto Shippuden (official),Naruto Shippuden (official),Naruto.

Source of 1-53 is DVD and 480p. Naruto Shippuuden 30. kv (20. MiB). kv (19.

Naruto Shippuuden 30. vi. 3. Resolution 848x480. Downloading file in progress. close the ad You can close the ad in 10. Web advert. Quick download 3 min. FREE download 20 min. Fast download. Price for download is less than . € .

You cannot download any of those files from here. shazam 2019 3s, mmp 3s, tt3721936 1s, game of thrones 8 s08e01 3s, kaguya sama 1s, naked and afraid 2s, italian 2019 2s, windows 10 pro 1s, title: LucyScat 2s, people 3d models 1s. 03s.


Episode Title : Terror-Steam Up

Screens:




Media Info:
Format : Matroska
Format version : Version 4 / Version 2
File size : 54.3 MiB
Duration : 23mn 9s
Overall bit rate mode : Variable
Overall bit rate : 328 Kbps
Encoded date : UTC 2013-02-28 17:46:21
Writing application : mkvmerge v6.0.0 ('Coming Up For Air') built on Jan 20 2013
09:52:00
Writing library : libebml v1.3.0 + libmatroska v1.4.0
Video
ID : 1
Format : AVC
Format/Info : Advanced Video Codec
Format profile : High [email protected]
Format settings, CABAC : Yes
Format settings, ReFrames : 4 frames
Codec ID : V_MPEG4/ISO/AVC
Duration : 23mn 9s
Bit rate : 280 Kbps
Width : 848 pixels
Height : 480 pixels
Display aspect ratio : 16:9
Frame rate mode : Constant
Frame rate : 23.976 fps
Color space : YUV
Chroma subsampling : 4:2:0
Bit depth : 10 bits
Scan type : Progressive
Bits/(Pixel*Frame) : 0.029
Stream size : 45.3 MiB (83%)
Writing library : x264 core
Default : Yes
Forced : No
Audio
ID : 2
Format : Vorbis
Format settings, Floor : 1
Codec ID : A_VORBIS
Duration : 23mn 9s
Bit rate mode : Variable
Bit rate : 48.0 Kbps
Channel(s) : 1 channel
Sampling rate : 32.0 KHz
Compression mode : Lossy
Stream size : 7.95 MiB (15%)
Writing library : Lavf52.94.0
Language : Japanese
Default : Yes
Forced : No
Writing application : Lavf52.94.0
Text
ID : 3
Format : ASS
Codec ID : S_TEXT/ASS
Codec ID/Info : Advanced Sub Station Alpha
Compression mode : Lossless
Language : English
Default : Yes
Forced : No

Images:
http://imageshack.us/a/img201/5192/76798899.jpg|http://imageshack.us/a/img834/761/46661027.jpg|http://imageshack.us/a/img543/2718/11080772.jpg|http://img687.imageshack.us/img687/9577/saythanksh.jpg

Related at Naruto Shippuudden 302 480p 10BiT :
© 2019 www.gphi.it | Contacts | DMCA | Privacy Policy