» » How to Train Your Dragon 2010 Cam-Lu
Language: English
Size: 800.1 MB
Rating: 4.9
Category: Anime
Votes: 390
How to Train Your Dragon 2010 Cam-Lu
Files:
  • How.to.Train.Your.Dragon.2010.Cam.Lu.avi (800.1 MB)


Cressida Cowell is an English children's author, popularly known for the book series, How to Train Your Dragon, which has subsequently become an award-winning franchise as adapted for the screen by DreamWorks Animation.

Cressida Cowell is an English children's author, popularly known for the book series, How to Train Your Dragon, which has subsequently become an award-winning franchise as adapted for the screen by DreamWorks Animation. As of 2015, the series has sold more than seven million copies around the world. She was born on 15 April 1966 in London.

How to Train Your Dragon 2 is a 2014 American computer-animated action fantasy film loosely based on the book series of the same name by Cressida Cowell.

A hapless young Viking who aspires to hunt dragons becomes the unlikely friend of a young dragon himself, and learns there may be more to the creatures than he assumed. How to Train Your Dragon 2. How to Train Your Dragon: The Hidden World. Watch on Prime Video.

How to Train Your Dragon is a 2010 American computer-animated action fantasy film loosely based on the 2003 book of the same name by British author Cressida Cowell, produced by DreamWorks Animation and distributed by Paramount Pictures.

Gorgeously animated, and accompanied by a rousing score by John Powell, How to Train Your Dragon is a delightful adventure with a surprising dose of heart. The Dispatch (Lexington, NC).

Tag a friend who loves these adorable dragons! 2 Aralık, 11:00 ·. Herkese Açık. 617 Yorum · Haberin Tam Boyutu. How to Train Your Dragon. Aren’t Snoggletog cards the best? Start the season right with Homecoming, premiering December 3 on NBC!


TiTLE......[ How to Train Your Dragon
YEAR.......[ 2010
GENRE......[ Animation | Family
RUNTiME....[ 2:01:24
iMDB RATE..[ User Rating: 8.2/10 1,438 votes
iMDB http://www.imdb.com/title/tt0892769/
How.to.Train.Your.Dragon.2010.Cam.Lu-
Format : AVI
Format/Info : Audio Video Interleave
File size : 800 MiB
Duration : 1h 28mn
Overall bit rate : 1 261 Kbps
Writing library : VirtualDub build 32706/release
Video
ID : 0
Format : MPEG-4 Visual
Format settings, BVOP : Yes
Format settings, QPel : No
Format settings, GMC : No warppoints
Format settings, Matrix : Default (H.263)
Codec ID : DX50
Codec ID/Hint : DivX 5
Duration : 1h 28mn
Bit rate : 1 123 Kbps
Width : 704 pixels
Height : 304 pixels
Display aspect ratio : 2.35:1
Frame rate : 25.000 fps
Resolution : 8 bits
Colorimetry : 4:2:0
Scan type : Progressive
Bits/(Pixel*Frame) : 0.210
Stream size : 713 MiB (89%)
Writing library : DivX 6.8.5 (UTC 2009-08-20)
Audio
ID : 1
Format : MPEG Audio
Format version : Version 1
Format profile : Layer 3
Mode : Joint stereo
Format_Settings_ModeExtension : MS Stereo
Codec ID : 55
Codec ID/Hint : MP3
Duration : 1h 28mn
Bit rate mode : Constant
Bit rate : 128 Kbps
Channel(s) : 2 channels
Sampling rate : 48.0 KHz
Stream size : 81.2 MiB (10%)
Alignment : Split accross interleaves
Interleave, duration : 40 ms (1.00 video frame)
Interleave, preload duration : 500 ms
Screens

Images:
http://i41.tinypic.com/28jclu.jpg|http://s1.picsafe.de/files/515edf1e/ndlkb6.jpg

Related at How to Train Your Dragon 2010 Cam-Lu:
© 2019 www.gphi.it | Contacts | DMCA | Privacy Policy