» » Naruto Shippuden Episode 277 - With English Subtitle MP4 Jazz_Singh
Language: Japanese
Size: 39.0 MB
Rating: 4.1
Category: Anime
Votes: 517
Naruto Shippuden Episode 277 - With English Subtitle MP4 Jazz_Singh
Files:
  • Naruto Shippuden Episode 277 - With English Subtitle [Jazz_Singh].mp4 (39.0 MB)


Naruto Shippuden Episode 267 - With English Subtitle.

Naruto Shippuden Episode 267 - With English Subtitle.

You are going to Watch Naruto Shippuden Episode 277 English dubbed online free episodes with HQ, high quality. There are seperated players and you are watching on Player 1. Also you can find HTML5/Mp4 player on the second player. Tried All Players and None Works. Stream Anime Naruto Shippuden Episode 277 Online English.

You can find all Naruto Shippuden Episodes English Subbed and Naruto Shippuden related content at WatchNaruto. Latest Episode : Naruto Shippuden Episode 500 Latest Chapter : Boruto Oneshot Chapter 1 Upcoming Episode : Naruto Shippuden Episode 501. Watch Naruto Anime Online.

Episode277 Unison Sign.

You are currently watching Naruto Shippuden Episode 277 English Dubbed from the anime series Naruto Shippuden. You can watch more episodes of Naruto Shippuden English Dub or Sub here at Dubbed Anime for free! Previous. Dubbed Anime is an anime streaming video site where you can watch anime in English Dubbed & Subbed.

Naruto Shippuden Episode 276 English SubbedNaruto Shippuden Episode 278 English Subbed. Ore wo Suki nano wa Omae dake ka yo Episode . English Subbed. Mugen no Juunin: Immortal Episode 10 English Subbed. Honzuki no Gekokujou: Shisho ni Naru Tame ni wa Shudan wo Erandeiraremasen Episode 10 English Subbed. Ahiru no Sora Episode 10 English Subbed.

narito episode 277 sub indo. download naruto shippuden episode 277 gomunime. Terdapat beberapa pilihan penyedia file pada kolom tersebut.

Download (MP4 format). Naruto shippuden episodes. Naruto Shippuden Episode 500. Naruto Shippuden Episode 499. Naruto Shippuden Episode 498. Naruto Shippuden Episode 497. Naruto Shippuden Episode 496. Naruto Shippuden Episode 495.

You are going to Watch Naruto Shippuden Episode 248 English dubbed online free episodes with HQ, high quality

You are going to Watch Naruto Shippuden Episode 248 English dubbed online free episodes with HQ, high quality. Stream Anime Naruto Shippuden Episode 248 Online English dub The Fourth Hokage's Death Match! Kushina successfully delivers Naruto but their celebration comes short when Madara suddenly appears, killing both Taji and Biwako and holds Naruto as a hostage.

You are watching Naruto Shippuden Episode 277 Online at AnimeRam. Select one of our user submitted mirrors for Naruto Shippuden Episode 277 Subbed & Dubbed Streaming in High Quality.

Naruto Shippuden Episode 277


Title:The Sign of Settlement
Release date :August 30th, 2012
Audio language :Japanese
SubTitle language :English

General
Format : MPEG-4
Format profile : Base Media
Codec ID : isom
File size : 39.0 MiB
Duration : 23mn 9s
Overall bit rate mode : Variable
Overall bit rate : 235 Kbps
Encoded date : UTC 2012-08-29 11:02:54
Tagged date : UTC 2012-08-29 11:02:54
Video
Format : AVC
Format/Info : Advanced Video Codec
Format profile : [email protected]
Format settings, CABAC : Yes
Format settings, ReFrames : 6 frames
Codec ID : avc1
Codec ID/Info : Advanced Video Coding
Duration : 23mn 9s
Bit rate mode : Variable
Bit rate : 138 Kbps
Maximum bit rate : 1 143 Kbps
Width : 640 pixels
Height : 360 pixels
Display aspect ratio : 16:9
Original display aspect ratio : 16:9
Frame rate mode : Constant
Frame rate : 23.976 fps
Color space : YUV
Chroma subsampling : 4:2:0
Bit depth : 8 bits
Scan type : Progressive
Bits/(Pixel*Frame) : 0.025
Stream size : 22.9 MiB (59%)
Writing library : x264 core 125 r2208 d9d2288
Audio
Format : AAC
Format/Info : Advanced Audio Codec
Format profile : LC
Codec ID : 40
Duration : 23mn 9s
Bit rate mode : Variable
Bit rate : 93.3 Kbps
Maximum bit rate : 153 Kbps
Channel(s) : 2 channels
Channel positions : Front: L R
Sampling rate : 44.1 KHz
Compression mode : Lossy
Stream size : 15.4 MiB (40%)
Encoded date : UTC 2012-08-29 11:02:54
Tagged date : UTC 2012-08-29 11:02:54

Images:
http://i.imgur.com/jE103.png|http://i.imgur.com/Rfhq0.jpg|http://i.imgur.com/SqTqu.png|http://i.imgur.com/QMSEu.gif|http://i.imgur.com/ctI4t.gif|http://i.imgur.com/beorv.png

Related at Naruto Shippuden Episode 277 - With English Subtitle MP4 :
© 2019 www.gphi.it | Contacts | DMCA | Privacy Policy