» » One Piece 538 mkv HorribleSubs 360p
Language: Japanese
Size: 227.5 MB
Rating: 4.3
Category: Anime
Votes: 634
One Piece 538 mkv HorribleSubs 360p
Files:
  • Torrent downloaded from Demonoid.me.txt (0.0 KB)
  • Torrent downloaded from Extratorrent.com.txt (0.0 KB)
  • Torrent downloaded from h33t.com.txt (0.0 KB)
  • [HorribleSubs] One Piece - 538 [360p].mkv (227.5 MB)


Gol D. Roger was known as the Pirate King, the strongest and most infamous being to have sailed the Grand Line.

Details for this torrent. One Piece - 538 Episode 539 will not be aired until March 18th. No One Piece this week.

Download Direct One Piece - 538.

Complete name : One Piece - 538.

Format MKV. Anime Resolution 360p. Substitle HorribleSubs Episode 538 - The Straw Hats Defeated?! Hordy Gains Control of the Ryugu Palace!

One Piece - 538 "The Crew is Defeated?! Hody's Ryugu Palace Takeover"

Twenty years have passed since Roger's execution, and Monkey D. Luffy, a young pirate inspired by the pirate known as "Red-Haired" Shanks, has since set off on a journey from the East Blue to succeed Roger and find the treasure. He organizes and leads a nine-member crew named the Straw Hat Pirates. Each crew member Luffy encounters eventually become his close friends, including the swordsman Roronoa Zoro, the navigator and thief Nami, the sniper Usopp, the womanizing chef and martial artist Sanji, the doctor and anthropomorphized reindeer Tony Tony Chopper, the archaeologist Nico Robin, the cybernetic shipwright Franky, and the musician skeleton Brook.
The crew crosses paths with diverse villains, such as Buggy the Clown, many of the Seven Warlords of the Sea, the Marines, who place bounties on Luffy's, Zoro's, and eventually the rest of the crew's heads, and Arlong, a fishman and member of the former Sun Pirates. They encounter Baroque Works, the crime syndicate responsible for a civil war in the desert kingdom of Alabasta, along with fellow pirate Blackbeard, whose dream is also to become the King of the Pirates. The crew also confronts Enel, the ruler of the floating island Skypiea. Later, the crew meets the Marine admiral Aokiji, who reveals that Robin was involved in searching for Poneglyphs, stones with markings left by an ancient civilization whom Roger himself was also able to read. The crew also encounters Cipher Pol No. 9, the intelligence agency responsible for the destruction of Robin's homeland, who causes the pirates to declare war on the World Government. After an epic battle at Enies Lobby, the crew defeats CP9 - saving Robin and avenging the lives lost in the destruction - and each member receives bounties on their heads.
Some time later, the crew prepares to sail off to the New World, the second half of the Grand Line. The crew eventually gets separated during a battle at the Sabaody Archipelago. At the same time, the Marines sentence Luffy's older (adopted) brother who as it turns out is also Gol D. Roger's son Portgas D. Ace to be executed, and hold a war against a group of pirates led by Whitebeard. Luffy eventually rescues Ace, but both Whitebeard and Ace are killed in the ensuing chaos. Later, Luffy and the crew undergo rigorous training regimens, some under the tutelage of prominent figures. Two years later, the crew regroups and journeys to Fishman Island to enter the New World. At the same time, a group of evil fishman pirates appear, and holds a coup d'état to decide the fate of the island, but are eventually defeated by the Straw Hats alongside Jimbei. The Straw Hats leave Fishman Island and finally reach the New World, but not before starting a feud with the legendary pirate Big Mom, who now waits for them at one of that sea's many islands.

Genres : Adventure, comedy, drama, fantasy
Themes : Pirates
Release date : March 04, 2012
Audio language : Japanese
SubTitle language : English
"This verified torrent was uploaded to Torlock.com."
General
Complete name : [HorribleSubs] One Piece - 538 [360p].mkv
Format : Matroska
Format version : Version 2
File size : 227 MiB
Duration : 23mn 31s
Overall bit rate : 1 352 Kbps
Video
Format : VP6
Format profile : Heightened Sharpness
Codec ID : VP6F
Codec ID/Hint : On2
Duration : 23mn 31s
Bit rate : 1 197 Kbps
Width : 640 pixels
Height : 368 pixels
Display aspect ratio : 16:9
Frame rate : 23.810 fps
Bits/(Pixel*Frame) : 0.213
Stream size : 201 MiB (89%)
Default : Yes
Forced : No
Audio
Format : MPEG Audio
Format version : Version 1
Format profile : Layer 3
Muxing mode : Header stripping
Codec ID : A_MPEG/L3
Codec ID/Hint : MP3
Duration : 23mn 31s
Bit rate mode : Constant
Bit rate : 128 Kbps
Channel(s) : 2 channels
Sampling rate : 44.1 KHz
Compression mode : Lossy
Stream size : 21.5 MiB (9%)
Default : Yes
Forced : No
If you have problems with playback, update your video codecs or codec packs.
(CCCP/FFDshow Tryouts/CoreAVC/whatever else people use).

Images:
http://images2.fanpop.com/images/photos/6800000/One-Piece-one-piece-6820859-1440-900.jpg

Related at One Piece 538 mkv:
© 2019 www.gphi.it | Contacts | DMCA | Privacy Policy