» » Blame! 720p x265 EngDub 2017
Language: English
Size: 525.6 MB
Rating: 4.0
Category: Anime
Votes: 443
Blame! 720p x265 EngDub 2017
Files:
(DigiMaza) Blame! Movie (2017)
  • [DigiMaza] Blame! Movie (2017).mkv (525.6 MB)
  • Read Me.txt (0.4 KB)


1080p BDRip English Subbed Movie x265.

1080p BDRip English Subbed Movie x265. Blame! The Movie BDRip x265 1080p English Subbed.

All Hindi Dubbed Hollywood Movies and Tv Series Dual Audio Hindi Free Download Pc 720p 480p Movies Download .

All Hindi Dubbed Hollywood Movies and Tv Series Dual Audio Hindi Free Download Pc 720p 480p Movies Download,Worldfree4u, 9xmovies, world4ufree, world4free, Khatrimaza 123Movies fmovies Gomovies gostream 300Mb Dual Audio Hindi Dubbed HD Movies Free Download Korean Drama Series in Hindi + Anime English Dub 720p Bollywood Movies Download, 720p Hollywood. 720p Hollywood Dub 1080p Punjabi Movies South Dubbed 300mb Movies High Definition Quality (Bluray 720p 1080p 300MB MKV and Full HD Movies or watch online at katmoviehd.

Blame 2017 480p WEBRip x264-TFPDL. Oscar Movies 2019 PS4 Games Software Sports Top Feature Movies Tv Series WEB-DL WEBRip x265/HEVC. Godzilla: City on the Edge of Battle 2018 720p WEBRip x264-TFPDL. Godzilla The Planet Eater 2018 ENGLISH DUBBED 720p NF WEBRip x264-TFPDL. Godzilla Monster Planet 2017 720p WEBRip x264-TFPDL. Godzilla: City on the Edge of Battle 2018 480p WEBRip x264-TFPDL. Select Category 1080p Movies 1080p TV Series 480p Movies 480p TV Series 720p Movies 720p TV Series Anime BluRay CAM Complete Season Packs DVDRip DVDScr Ebooks Extra Games HDRip Jay Silverman Movies Movies Trailer Music Oscar Movies 2019 PS4 Games Software Sports Top Feature Movies Tv Series WEB-DL WEBRip x265/HEVC.

MOVIE - NOTE: Movie is set with different HEVC x265 settings. txt (. KB). - Gundam 00 S1 01 - - BV. p4. AnimeDB.

2017) 720p x265 Download torrent or any other torrent from the Video HD - Movies.

Watch full Blame! Movie English Dubbed online full HD. Anime movies Blame! Movie English Dubbed online for free in HD. In the distant technological future, civilization has reached its ultimate Net-based form

Watch full Blame! Movie English Dubbed online full HD. In the distant technological future, civilization has reached its ultimate Net-based form.

B Gata H Kei Yamada's First Time Complete (Eng. GB. Noragami Season 1 complete ..

nl/download/Blame p WEBDL DD. HEVC x265 RMTeam. 11 months ago Blame It On Rio 1984 720p BluRay H264 AAC-RARBG.

2017-04-25 12:22:47 GMT. By.An anime adaptation by Madhouse aired in Japan on Tokyo MX and was streamed with English subtitles by Crunchyroll from October 4 to December 20, 2012. By: digimaza. It has been licensed in North America by Sentai Filmworks.

Blame! Movie [EngDub] 720p x265 Download

Quote:

In the distant technological future, civilization has reached its ultimate Net-based form. An "infection" in the past caused the automated systems to spiral out of order, resulting in a multi-leveled city structure that replicates itself infinitely in all directions. Now humanity has lost access to the city's controls, and is hunted down and purged by the defense system known as the Safeguard. In a tiny corner of the city, a little enclave known as the Electro-Fishers is facing eventual extinction, trapped between the threat of the Safeguard and dwindling food supplies. A girl named Zuru goes on a journey to find food for her village, only to inadvertently cause doom when an observation tower senses her and summons a Safeguard pack to eliminate the threat. With her companions dead and all escape routes blocked, the only thing that can save her now is the sudden arrival of Killy the Wanderer, on his quest for the Net Terminal Genes, the key to restoring order to the world.

..::File Specs::..
General
Format version : Version 4 / Version 2
File size : 526 MiB
Duration : 1 h 46 min
Overall bit rate mode : Variable
Overall bit rate : 693 kb/s
Video
Format : HEVC
Format/Info : High Efficiency Video Coding
Format profile : [email protected]@Main
Codec ID : V_MPEGH/ISO/HEVC
Duration : 1 h 46 min
Bit rate : 605 kb/s
Width : 1 280 pixels
Height : 532 pixels
Display aspect ratio : 2.40:1
Original display aspect rat : 2.40:1
Frame rate mode : Constant
Frame rate : 23.976 (24000/1001) FPS
Color space : YUV
Chroma subsampling : 4:2:0
Bit depth : 8 bits
Bits/(Pixel*Frame) : 0.037
Stream size : 459 MiB (87%)
Language : English
Audio
ID : 2
Format : Vorbis
Format settings, Floor : 1
Codec ID : A_VORBIS
Duration : 1 h 46 min
Bit rate mode : Variable
Bit rate : 86.0 kb/s
Channel(s) : 2 channels
Sampling rate : 44.1 kHz
Frame rate : 52.704 FPS (837 spf)
Compression mode : Lossy
Stream size : 65.1 MiB (12%)
Title : Vorbis 2.0
Writing library : libVorbis (??] (20150105 (??])
Language : English
Text
Codec ID : S_TEXT/ASS
Codec ID/Info : Advanced Sub Station Alpha
Duration : 1 h 45 min
Bit rate : 64 b/s
Count of elements : 983
Compression mode : Lossless
Stream size : 49.4 KiB (0%)
Language : English
..::ScreenShots::..
https://s16.postimg.org/70pgr30w5/vlcsnap-2017-05-30-01h30m26s726.png
https://s16.postimg.org/j3usenbyd/vlcsnap-2017-05-30-01h30m31s118.png
https://s16.postimg.org/5ocd2xsud/vlcsnap-2017-05-30-01h30m44s278.png
================================================================
Seed Seed Seed Seed Seed Seed Seed Seed Seed Seed Seed Seed Seed
To direct download this file, Visit.
www.DigiMaza.com
Seed Seed Seed Seed Seed Seed Seed Seed Seed Seed Seed Seed Seed
================================================================

Images:
https://s9.postimg.org/erro3vedr/blame-820004698-large.jpg

Related at Blame! 720p x265:
© 2019 www.gphi.it | Contacts | DMCA | Privacy Policy