» » DuckTales S01E12 The Missing Links of Moorshire 1080p x264 Phun Psyz 2017
Language: English
Size: 167.3 MB
Rating: 4.8
Category: Anime
Votes: 828
DuckTales S01E12 The Missing Links of Moorshire 1080p x264 Phun Psyz 2017
Files:
  • DuckTales (2017) S01E12 The Missing Links of Moorshire 1080p x264 Phun Psyz.mp4 (167.3 MB)


Cartoon video DuckTales 2017 Episode 10 online for free in H. Attention : About %80 of broken-missing video reports we recieve are invalid so that we believe the problems are caused by you, your computer or something else. Please read below and find your solution

Cartoon video DuckTales 2017 Episode 10 online for free in H. Please read below and find your solution. If you think it is something else please report us.

DuckTales 2017 Episode 11 – Beware the . System! DuckTales 2017 Episode 13 – McMystery at McDuck McManor!

DuckTales 2017 Episode 11 – Beware the . PAW Patrol Season 6 Episode 35 - 36. PAW Patrol Season 6 Episode 31 - 32. Transformers: Cyberverse Season 2 Episode 14 - Party Down. Harley Quinn Episode 1 - Harley Quinn.

DuckTales 2017 S01E20 HDTV x264-W4F. Posted in TV. 13. 7 MB.

McDuck and Glomgold play a competitive game of golf, but when they get trapped in an enchanted golf course they must work together to escape. Source: Lazy (857 MiB). DuckTales 2017 S01E20 HDTV x264-W4F. Levius Episode 12 English Dubbed. Levius Episode 1 English Dubbed. Kemono Michi: Rise Up Episode 8 English Dubbed.

System! Episode 010 - The Spear of Selene! Episode 009 - The Impossible Summit of Mt. Neverrest! Episode 008 - The Living Mummies of Toth-Ra!

264-YFN torrent or any other torrent from the Video HD - TV shows.

DuckTales (2017) - Season 1. The series follows Scrooge McDuck, Huey, Dewey, Louie, Donald Duck, and their team as they embark on amazing adventures. Meanwhile, the nephews and their new friend Webby uncover the truth behind what caused their uncles to become estranged and retire from adventuring.

www.imdb.com/title/tt7441872/?ref_=ttep_ep12
McDuck and Glomgold play a competitive game of golf, but when they get trapped in an enchanted golf course they must work together to escape.
Source: Lazy (857 MiB)

Format : MPEG-4
Format profile : Base Media / Version 2
Codec ID : mp42 (isom/iso2/avc1/mp41)
File size : 167 MiB
Duration : 22 min 37 s
Overall bit rate mode : Variable
Overall bit rate : 1 034 kb/s
Video
ID : 1
Format : AVC
Format/Info : Advanced Video Codec
Format profile : [email protected]
Format settings : CABAC / 8 Ref Frames
Format settings, CABAC : Yes
Format settings, RefFrames : 8 frames
Codec ID : avc1
Codec ID/Info : Advanced Video Coding
Duration : 22 min 37 s
Bit rate : 867 kb/s
Width : 1 920 pixels
Height : 1 080 pixels
Display aspect ratio : 16:9
Frame rate mode : Variable
Frame rate : 23.976 (24000/1001) FPS
Minimum frame rate : 23.974 FPS
Maximum frame rate : 23.981 FPS
Color space : YUV
Chroma subsampling : 4:2:0
Bit depth : 8 bits
Scan type : Progressive
Bits/(Pixel*Frame) : 0.017
Stream size : 140 MiB (84%)
Writing library : x264 core 155 r2893 b00bcaf
Audio
ID : 2
Format : AAC
Format/Info : Advanced Audio Codec
Format profile : LC
Codec ID : mp4a-40-2
Duration : 22 min 37 s
Bit rate mode : Variable
Bit rate : 160 kb/s
Channel(s) : 2 channels
Channel positions : Front: L R
Sampling rate : 48.0 kHz
Frame rate : 46.875 FPS (1024 SPF)
Compression mode : Lossy
Stream size : 25.9 MiB (15%)
Title : Stereo / Stereo
Language : English
Text
Language : English
Default : Yes
Forced : No

Images:
https://extraimage.net/images/2018/05/26/92d9e3b981f8f2288af281819a13c5b1.md.png|https://extraimage.net/images/2018/05/26/0344b0dd8476d92aa52e5973cf237f1e.md.png|https://extraimage.net/images/2018/05/26/1909528694623dfcb708ea9d52193439.md.png|https://extraimage.net/images/2018/05/26/2b2da5c1d315964060b7f7c8207326a6.md.png|https://extraimage.net/images/2018/05/26/0048ab56e97ccfc9fd80fe323a4e6e29.md.png

Related at DuckTales S01E12 The Missing Links of Moorshire 1080p x264 Phun Psyz:
© 2019 www.gphi.it | Contacts | DMCA | Privacy Policy