» » Dragon Ball Super - 050 720p x264 -ARIZONE English Subbed DragonTeam
Language: Japanese
Size: 194.6 MB
Rating: 4.0
Category: Anime
Votes: 221
Dragon Ball Super - 050 720p x264 -ARIZONE English Subbed DragonTeam
Files:
  • please seed 50.jpg (130.7 KB)
  • ARIZONE.jpg (334.4 KB)
  • Dragon Ball Super - 050 [English Subbed] [DragonTeam] 720p x264 ~ARIZONE.mkv (194.2 MB)


Please bookmark this domain and UNBLOCK on us ADBLOCK!!! We recieve too many complaints regarding to broken videos. If you are using an ADblock you probably won't be able to watch in HD and sometimes you will get errors like "No video with supported format and MIME type found".

Please bookmark this domain and UNBLOCK on us ADBLOCK!!! We recieve too many complaints regarding to broken videos. This is a bug of Adblock not our fault!! Please turn off your Adblocks to watch it without any trouble. Dragon Ball Super Broly English Dubbed

biz Hd Download dragon ball super episodes. Super Dragon Ball Heroes Episode 12 Subbed.

biz Hd Download dragon ball super episodes. Dragon Ball Super Episode 131 English Dubbed. Dragon Ball Super Episode 130 English Dubbed. Dragon Ball Super Episode 129 English Dubbed. Dragon Ball Super Episode 128 English Dubbed. Dragon Ball Super Episode 127 English Dubbed. Dragon Ball Super Episode 126 English Dubbed.

Dragon Ball Super - 033 Dragon Ball Super Episode . .

Dragon Ball Super - 033 Dragon Ball Super - 046 English Subbed Dragon Ball Super - 023 English Subbed Dragon Ball Super Episode .If the content above is not authorized, please contact us via contactp2bt. Remember to include the full url in your complaint.

Since Battle of the Gods, Gokuu has undergone new forms from Super Saiyan God to Super Saiyan Blue to other evolved forms that have gone up against many invincible warriors from multiple universes. This new story will focus on the origin of the Saiyans’ strength and what it means to be Saiyan. Related Anime Dub Version: Dragon Ball Super Broly (Dub) Prequel: Dragon Ball Super Other: Dragon Ball Super: Broly – Skytree Super.

Dragon Ball Super (Japanese: ドラゴンボール. (スーパー) Hepburn: Doragon Bōru Sūpā) is a Japanese manga series and anime television series

Dragon Ball Super (Japanese: ドラゴンボール. (スーパー) Hepburn: Doragon Bōru Sūpā) is a Japanese manga series and anime television series. Its overall plot outline is written by Dragon Ball franchise creator Akira Toriyama, and is a sequel to his original Dragon Ball manga and the Dragon Ball Z television series.

Audio Books & Poetry Community Audio Computers & Technology Music, Arts & Culture News & Public Affairs Non-English Audio Radio Programs. Dragon Ball Super - 005. Librivox Free Audiobook. Spirituality & Religion Podcasts. Dragon Ball Super - 001. Dragon Ball Super - 002. Dragon Ball Super - 006.

Re: Dragon Ball Super Re: Dragon Ball Super. The group skipped them.

Re: Dragon Ball Super. Re: Dragon Ball Super.

DragonTeam Ball ARIZONE Subbed 720p - Dragon English x264 Super 05.

DragonTeam Ball ARIZONE Subbed 720p - Dragon English x264 Super 051. 种子包含的文件. Dragon Ball Super - 051 720p x264 ~ARIZONE. Dragon Ball Super - 051 720p x264 ~ARIZONE 17. MB.




Dragon Ball Super - 050

Format                                   : Matroska
Format version                           : Version 4 / Version 2
File size                                : 191 MiB
Duration                                 : 23mn 25s
Overall bit rate                         : 1 017 Kbps
Movie name                               : S04 E04 - ~ARIZONE
[/center][/quote]
[spoiler="VIDEO / AUDIO"]

Quote:

Format                                   : AVC
Format/Info                              : Advanced Video Codec
Format profile                           : [email protected]
Format settings, CABAC                   : Yes
Format settings, ReFrames                : 5 frames
Codec ID                                 : V_MPEG4/ISO/AVC
Duration                                 : 23mn 24s
Bit rate                                 : 747 Kbps
Width                                    : 1 280 pixels
Height                                   : 720 pixels
Display aspect ratio                     : 16:9
Frame rate mode                          : Constant
Frame rate                               : 23.976 (24000/1001) fps
Color space                              : YUV
Chroma subsampling                       : 4:2:0
Bit depth                                : 8 bits
Scan type                                : Progressive
Bits/(Pixel*Frame)                       : 0.034
Stream size                              : 125 MiB (73%)
Writing library                          : x264 core 142 r2479 dd79a61
Encoding settings                        : cabac=1 / ref=5 / deblock=1:1:1 / analyse=0x1:0x111 / me=umh / subme=8 / psy=1 / psy_rd=0.40:0.00 / mixed_ref=1 / me_range=16 / chroma_me=1 / trellis=1 / 8x8dct=0 / cqm=0 / deadzone=21,11 / fast_pskip=1 / chroma_qp_offset=-2 / threads=6 / lookahead_threads=1 / sliced_threads=0 / nr=0 / decimate=1 / interlaced=0 / bluray_compat=0 / constrained_intra=0 / bframes=5 / b_pyramid=2 / b_adapt=2 / b_bias=0 / direct=3 / weightb=1 / open_gop=0 / weightp=2 / keyint=240 / keyint_min=24 / scenecut=40 / intra_refresh=0 / rc_lookahead=50 / rc=crf / mbtree=1 / crf=24.0 / qcomp=0.60 / qpmin=0 / qpmax=69 / qpstep=4 / vbv_maxrate=14000 / vbv_bufsize=14000 / crf_max=0.0 / nal_hrd=none / filler=0 / ip_ratio=1.40 / aq=1:0.60
Default                                  : Yes
Forced                                   : No
Color range                              : Limited
Color primaries                          : BT.709
Transfer characteristics                 : BT.709
Matrix coefficients                      : BT.709
Audio
ID                                       : 2
Format                                   : AAC
Format/Info                              : Advanced Audio Codec
Format profile                           : LC
Codec ID                                 : A_AAC
Duration                                 : 23mn 24s
Bit rate                                 : 64.3 Kbps
Channel(s)                               : 2 channels
Channel positions                        : Front: L R
Sampling rate                            : 48.0 KHz
Frame rate                               : 46.875 fps (1024 spf)
Compression mode                         : Lossy
Delay relative to video                  : -21ms
Stream size                              : 10.8 MiB (6%)
Title                                    : Stereo
Language                                 : Japanese
Default                                  : Yes
Forced                                   : No
Text
ID                                       : 3
Format                                   : ASS
Codec ID                                 : S_TEXT/ASS
Codec ID/Info                            : Advanced Sub Station Alpha
Duration                                 : 23mn 15s
Bit rate                                 : 110 bps
Count of elements                        : 331
Compression mode                         : Lossless
Stream size                              : 18.9 KiB (0%)
Title                                    : [DragonTeam]
Language                                 : English
Default                                  : Yes
Forced                                   : No
Menu
00:00:00.000                             : :Opening Theme
00:01:34.886                             : :Recap
00:03:18.907                             : :Part A
00:14:00.881                             : :Part B
00:21:44.720                             : :Ending Theme
00:22:44.821                             : :Next Episode Preview

[/spoiler]



Images:
http://s22.postimg.org/j03lusd4h/ARIZONE.jpg|http://s3.postimg.org/m13o4bjab/INFO_2.jpg|http://s30.postimg.org/8dvzu60bl/DRAGON_BALL_SUPER_Episode_004_ENGLISH_SUBBED.jpg|http://s13.postimg.org/5igit2e7b/screenshot.jpg|https://s32.postimg.org/unhikof1h/vlcsnap_2016_07_09_17h57m10s677.png|https://s32.postimg.org/3qxjccw85/vlcsnap_2016_07_09_17h57m22s221.png|https://s32.postimg.org/a5wk912xx/vlcsnap_2016_07_09_17h57m37s820.png|https://s32.postimg.org/rkgshb02t/vlcsnap_2016_07_09_17h57m49s632.png

Related at Dragon Ball Super - 050 720p x264 -ARIZONE:
© 2019 www.gphi.it | Contacts | DMCA | Privacy Policy