» » Spirited Away mkv 720p BD 10bit Dual Audio 2001 Sen to Chihiro no Kamikakushi
Language: English
Size: 1.1 GB
Rating: 4.1
Category: Anime
Votes: 893
Spirited Away mkv 720p BD 10bit Dual Audio 2001 Sen to Chihiro no Kamikakushi
Files:
  • [AnimeRG] Spirited Away (2001) (Sen to Chihiro no Kamikakushi) [720p BD 10bit] [Dual Audio] [JRR].mkv (1.1 GB)


Anime Tosho Home Sen to Chihiro no Kamikakushi 1, Complete Movie .

Anime Tosho Home Sen to Chihiro no Kamikakushi 1, Complete Movie . Spirited Away (2001) (Sen to Chihiro no Kamikakushi) .mkv. la/ for our latest stuff and for requesting your anime!

audio All audio latest This Just In Grateful Dead Netlabels Old Time Radio 78 RPMs and Cylinder Recordings. en to Chihiro no Kamikakushi.

audio All audio latest This Just In Grateful Dead Netlabels Old Time Radio 78 RPMs and Cylinder Recordings. Top. Audio Books & Poetry Community Audio Computers & Technology Music, Arts & Culture News & Public Affairs Non-English Audio Radio Programs. Librivox Free Audiobook. Spirituality & Religion Podcasts.

Chihiro and her parents are moving to a small Japanese town in the countryside, much to Chihiro's dismay. On the way to their new home, Chihiro's father makes a wrong turn and drives down a lonely one-lane road which dead-ends in front of a tunnel

Chihiro and her parents are moving to a small Japanese town in the countryside, much to Chihiro's dismay. On the way to their new home, Chihiro's father makes a wrong turn and drives down a lonely one-lane road which dead-ends in front of a tunnel. Her parents decide to stop the car and explore the area. They go through the tunnel and find an abandoned amusement park on the other side, with its own little town. When her parents see a restaurant with great-smelling food but no staff, they decide to eat and pay later

Spirited Away is a 2001 Japanese animated coming-of-age fantasy film

Spirited Away is a 2001 Japanese animated coming-of-age fantasy film. It was written and directed by Hayao Miyazaki, animated by Studio Ghibli for Tokuma Shoten, Nippon Television Network, Dentsu, Buena Vista Home Entertainment, Tohokushinsha Film and Mitsubishi and distributed by Toho.

Downloading file in progress. close the ad You can close the ad in 10.

1. Resolution 1280x692. Downloading file in progress. Web advert. Quick download 75 min.

..::Video Specs::..

Format : AVC
Format/Info : Advanced Video Codec
Format profile : High [email protected]
Format settings, CABAC : Yes
Format settings, ReFrames : 8 frames
Codec ID : V_MPEG4/ISO/AVC
Duration : 2h 13mn
Bit rate : 925 Kbps
Width : 1 280 pixels
Height : 692 pixels
Display aspect ratio : 1.85:1
Frame rate mode : Constant
Frame rate : 23.976 (24000/1001) fps
Color space : YUV
Chroma subsampling : 4:2:0
Bit depth : 10 bits

..::Audio Specs::..

Audio - 1
ID : 2
Format : AAC
Format/Info : Advanced Audio Codec
Format profile : HE-AAC / LC
Bit rate : 82.6 Kbps
Channel(s) : 2 channels
Channel positions : Front: L R
Sampling rate : 48.0 KHz / 24.0 KHz
Frame rate : 23.438 fps (1024 spf)
Compression mode : Lossy
Delay relative to video : 40ms
Stream size : 78.9 MiB (7%)
Title : HE-AAC
Language : English
Audio - 2
ID : 3
Format : AAC
Format/Info : Advanced Audio Codec
Format profile : HE-AAC / LC
Bit rate : 82.7 Kbps
Channel(s) : 2 channels
Channel positions : Front: L R
Sampling rate : 48.0 KHz / 24.0 KHz
Frame rate : 23.438 fps (1024 spf)
Compression mode : Lossy
Delay relative to video : 40ms
Stream size : 79.0 MiB (7%)
Title : HE-AAC
Language : Japanese

..::Subtitles::..

Text - 1
ID : 4
Format : ASS
Codec ID : S_TEXT/ASS
Codec ID/Info : Advanced Sub Station Alpha
Duration : 2h 13mn
Bit rate : 4 bps
Count of elements : 34
Compression mode : Lossless
Stream size : 4.06 KiB (0%)
Title : Signs & Songs (REVO/niizk)
Language : English
Default : Yes
Forced : No
Text - 2
ID : 5
Format : ASS
Codec ID : S_TEXT/ASS
Codec ID/Info : Advanced Sub Station Alpha
Duration : 2h 13mn
Bit rate : 83 bps
Count of elements : 1123
Compression mode : Lossless
Stream size : 81.5 KiB (0%)
Title : English Subs (REVO/niizk)
Language : English
Default : No
Forced : No
Text - 3
ID : 6
Format : ASS
Codec ID : S_TEXT/ASS
Codec ID/Info : Advanced Sub Station Alpha
Duration : 2h 13mn
Bit rate : 2 bps
Count of elements : 39
Compression mode : Lossless
Stream size : 2.50 KiB (0%)
Title : Songs & Signs (Coalgirls/R1)
Language : English
Default : No
Forced : No
Text - 4
ID : 7
Format : ASS
Codec ID : S_TEXT/ASS
Codec ID/Info : Advanced Sub Station Alpha
Duration : 2h 13mn
Bit rate : 65 bps
Count of elements : 1135
Compression mode : Lossless
Stream size : 63.4 KiB (0%)
Title : English Subs (Coalgirls/R1)
Language : English
Default : No
Forced : No
Text - 5
ID : 8
Format : PGS
Muxing mode : zlib
Codec ID : S_HDMV/PGS
Codec ID/Info : Picture based subtitle format used on BDs/HD-DVDs
Duration : 2h 13mn
Bit rate : 8 292 bps
Count of elements : 2404
Stream size : 7.89 MiB (1%)
Title : English Subs (Retail US-BD)
Language : English
Default : No
Forced : No
Text - 6
ID : 9
Format : PGS
Muxing mode : zlib
Codec ID : S_HDMV/PGS
Codec ID/Info : Picture based subtitle format used on BDs/HD-DVDs
Duration : 2h 13mn
Bit rate : 10.9 Kbps
Count of elements : 3176
Stream size : 10.4 MiB (1%)
Title : English SDH (Retail US-BD)
Language : English
Default : No
Forced : No
Text - 7
ID : 10
Format : ASS
Codec ID : S_TEXT/ASS
Codec ID/Info : Advanced Sub Station Alpha
Duration : 2h 13mn
Bit rate : 65 bps
Count of elements : 1231
Compression mode : Lossless
Stream size : 63.6 KiB (0%)
Title : French (Coalgirls/R1)
Language : French
Default : No
Forced : No
Text - 8
ID : 11
Format : ASS
Codec ID : S_TEXT/ASS
Codec ID/Info : Advanced Sub Station Alpha
Duration : 2h 13mn
Bit rate : 71 bps
Count of elements : 1090
Compression mode : Lossless
Stream size : 69.9 KiB (0%)
Title : German (Coalgirls/R1)
Language : German
Default : No
Forced : No
Text - 9
ID : 12
Format : UTF-8
Codec ID : S_TEXT/UTF8
Codec ID/Info : UTF-8 Plain Text
Duration : 2h 7mn
Bit rate : 37 bps
Count of elements : 1087
Stream size : 35.5 KiB (0%)
Title : Croatian
Language : Croatian
Default : No
Forced : No
Text -10
ID : 13
Format : VobSub
Muxing mode : zlib
Codec ID : S_VOBSUB
Codec ID/Info : Picture based subtitle format used on DVDs
Duration : 2h 13mn
Bit rate : 1 745 bps
Count of elements : 1227
Stream size : 1.66 MiB (0%)
Title : Korean
Language : Korean
Default : No
Forced : No
Text - 11
ID : 14
Format : VobSub
Muxing mode : zlib
Codec ID : S_VOBSUB
Codec ID/Info : Picture based subtitle format used on DVDs
Duration : 2h 13mn
Bit rate : 2 547 bps
Count of elements : 1097
Stream size : 2.42 MiB (0%)
Title : Cantonese
Language : Chinese
Default : No
Forced : No
Text - 12
ID : 15
Format : VobSub
Muxing mode : zlib
Codec ID : S_VOBSUB
Codec ID/Info : Picture based subtitle format used on DVDs
Duration : 2h 13mn
Bit rate : 2 578 bps
Count of elements : 1166
Stream size : 2.45 MiB (0%)
Title : Mandarin
Language : Chinese
Default : No
Forced : No



Images:
https://i1.someimage.com/d6TNAxn.png|https://i1.someimage.com/ds5dPfO.png|https://i1.someimage.com/7E8XGi5.png|https://i1.someimage.com/xFuKjlu.png

Related at Spirited Away mkv:
© 2019 www.gphi.it | Contacts | DMCA | Privacy Policy