» » Looney Tunes - Fur Of Flying 3D Anaglyph 720p BRRip AC3 x264 !! SiNiSTER !! Exclusive 2010 Red-Cyan 5.1ch
Language: English
Size: 94.3 MB
Rating: 4.2
Category: Anime
Votes: 331
Looney Tunes - Fur Of Flying 3D Anaglyph 720p BRRip AC3 x264 !! SiNiSTER !! Exclusive 2010 Red-Cyan 5.1ch
Files:
  • Looney Tunes - Fur Of Flying 3D (2010) Anaglyph (Red-Cyan) 720p BRRip.AC3.x264 (5.1ch) !! SiNiSTER !!.mkv (94.3 MB)
  • SiNiSTER.nfo (4.0 KB)
  • Info.txt (2.4 KB)
  • enjoy.txt (0.0 KB)
  • sceneunderground org.txt (0.0 KB)


ID : 2 Format : AC-3 Format/Info : Audio Coding 3 Mode extension : CM (complete main) Muxing mode : Header stripping Codec ID : A AC3 Duration : 3mn 4s Bit rate mode : Constant Bit rate : 448 Kbps Channel(s) : 6 channels Channel positions : Front: L C R, Side: L R, LFE Sampling rate : 4. KHz Bit depth : 16 bits Compression mode : Lossy.

SiNiSTER !. kv94 MB. SiNiSTER. You cannot download any of those files from here. The Bartender 1s, 面前 2s, astonishing x-men 1s, [email protected] 0s, 2017 movies 2s, i miss me more 2s, greatful dead st. stephen 2s, io non ho paura 0s, 公司銷售部的悶騷人妻 2s, ima kara atashi 今からアタシ 2s. 03s.

White Black Red Green Blue Yellow Magenta Cyan. Looney Tunes - Short fur of flying (2010) 1080p En. kv.

Please, upgrade your browser, OS or both. White Black Red Green Blue Yellow Magenta Cyan. Opaque Semi-Transparent. Black White Red Green Blue Yellow Magenta Cyan. Opaque Semi-Transparent Transparent. Transparent Semi-Transparent Opaque.

Falls 3D (2010) Anaglyph (Red - Cyan) 720p BRRip. Looney Tunes - Coyote Falls 3D (2010) Anaglyph (Red - Cyan) 720p BRRip. x264 (. ch) ~ sexyboy ~.

to Looney Tunes - Coyote Falls 3D (2010) Anaglyph (Red - Cyan) 720p BRRip. ch) ~ sexyboy ~ Anime Anime. com Looney Tunes - Coyote Falls 3D (2010) Anaglyph (Red - Cyan) 720p BRRip AC3 x264 (5 1ch) ~ sexyboy ~ Anime. to Looney Tunes - Coyote Falls 3D (2010) Anaglyph (Red - Cyan) 720p BRRip. ch) ~ sexyboy ~ Anime.

Mei is an exotic, beautiful blind dancer, associated with a dangerous revolutionary gang, known as the House of Flying Daggers. Captured by officers of the decadent Tang Dynasty, Mei finds herself both threatened – and attracted – to the most unusual circumstances.

X264-MNHD Audio ID : 2 Format : AC-3 Format/Info : Audio Coding 3 Mode extension : CM (complete main) Codec ID : A AC3 Duration : 3mn 4s Bit rate mode : Constant Bit rate : 640 Kbps.

Animated movies for kids of all ages (U and PG certificate).


Release Name : Looney Tunes - Fur Of Flying
Release Date : 24 Sep 2010 (USA)
Duration : 03 min 04 sec
Size : 95 MB
Gener : Animation | Short | Comedy

http://www.imdb.com/title/tt1714841/

Complete name : Looney Tunes - Fur Of Flying 3D Anaglyph (Red-Cyan) 720p BRRip.AC3.x264 (5.1ch) !! SiNiSTER !!.mkv
Format : Matroska
File size : 94.3 MiB
Duration : 3mn 4s
Overall bit rate : 4 286 Kbps
Encoded date : UTC 2011-10-11 16:07:08
Writing application : mkvmerge v4.7.0 ('Just Like You Imagined') built on Apr 21 2011 01:13:14
Writing library : libebml v1.2.0 + libmatroska v1.1.0

ID : 1
Format : AVC
Format/Info : Advanced Video Codec
Format profile : [email protected]
Format settings, CABAC : Yes
Format settings, ReFrames : 4 frames
Muxing mode : Header stripping
Codec ID : V_MPEG4/ISO/AVC
Duration : 3mn 4s
Bit rate : 3 752 Kbps
Nominal bit rate : 4 065 Kbps
Width : 1 280 pixels
Height : 532 pixels
Display aspect ratio : 2.40:1
Frame rate : 23.976 fps
Color space : YUV
Chroma subsampling : 4:2:0
Bit depth : 8 bits
Scan type : Progressive
Bits/(Pixel*Frame) : 0.230
Stream size : 82.6 MiB (88%)
Writing library : x264 core 80 r1373M 4322f63

ID : 2
Format : AC-3
Format/Info : Audio Coding 3
Mode extension : CM (complete main)
Muxing mode : Header stripping
Codec ID : A_AC3
Duration : 3mn 4s
Bit rate mode : Constant
Bit rate : 448 Kbps
Channel(s) : 6 channels
Channel positions : Front: L C R, Side: L R, LFE
Sampling rate : 48.0 KHz
Bit depth : 16 bits
Compression mode : Lossy
Stream size : 9.86 MiB (10%)
Title : ~=sexyboy=~
Language : English








Images:
http://img403.imageshack.us/img403/7668/furofflying739860908lar.jpg|http://img593.imageshack.us/img593/8296/imdb1.png|http://img802.imageshack.us/img802/5981/detailse.png|http://img522.imageshack.us/img522/1784/videoi.png|http://img31.imageshack.us/img31/9823/audiot.png|http://img267.imageshack.us/img267/4632/screensx.png|http://img842.imageshack.us/img842/3704/22374214.png|http://img811.imageshack.us/img811/5347/48817905.png|http://img338.imageshack.us/img338/4425/44733018.png|http://img59.imageshack.us/img59/2361/75466116.png|http://pix2links.com/image/LTS0e.gif|http://pix2links.com/image/ugDBY.gif|http://pix2links.com/image/wmTYe.gif|http://torrent-stats.info/a76a/108ff5130.png

Related at Looney Tunes - Fur Of Flying 3D Anaglyph 720p BRRip AC3 x264 !! SiNiSTER !!:
© 2019 www.gphi.it | Contacts | DMCA | Privacy Policy