» » Naruto Shippuden Season 1 480p Cursator Ep 1-32
Language: Japanese
Size: 1.8 GB
Rating: 4.1
Category: Anime
Votes: 493
Naruto Shippuden Season 1 480p Cursator Ep 1-32
Files:
  • Naruto Shippuden Ep 29&30.mp4 (136.7 MB)
  • Naruto Shippuden Ep 22&23.mp4 (135.4 MB)
  • Naruto Shippuden Ep 8&9.mp4 (110.6 MB)
  • Naruto Shippuden Ep 1&2.mp4 (108.0 MB)
  • Naruto Shippuden Ep 6&7.mp4 (97.3 MB)
  • Naruto Shippuden Ep 14.mp4 (74.2 MB)
  • Naruto Shippuden Ep 26.mp4 (73.6 MB)
  • Naruto Shippuden Ep 18.mp4 (70.9 MB)
  • Naruto Shippuden Ep 13.mp4 (69.1 MB)
  • Naruto Shippuden Ep 28.mp4 (66.5 MB)
  • Naruto Shippuden Ep 15.mp4 (64.1 MB)
  • Naruto Shippuden Ep 12.mp4 (62.4 MB)
  • Naruto Shippuden Ep 24.mp4 (61.8 MB)
  • Naruto Shippuden Ep 3.mp4 (60.3 MB)
  • Naruto Shippuden Ep 25.mp4 (57.6 MB)
  • Naruto Shippuden Ep 19.mp4 (55.9 MB)
  • Naruto Shippuden Ep 31.mp4 (55.6 MB)
  • Naruto Shippuden Ep 21.mp4 (54.6 MB)
  • Naruto Shippuden Ep 11.mp4 (54.4 MB)
  • Naruto Shippuden Ep 16.mp4 (54.3 MB)
  • Naruto Shippuden Ep 20.mp4 (53.9 MB)
  • Naruto Shippuden Ep 32.mp4 (53.8 MB)
  • Naruto Shippuden Ep 17.mp4 (52.7 MB)
  • Naruto Shippuden Ep 4.mp4 (52.6 MB)
  • Naruto Shippuden Ep 5.mp4 (51.0 MB)
  • Naruto Shippuden Ep 27.mp4 (51.0 MB)
  • Naruto Shippuden Ep 10.mp4 (49.2 MB)
Screenshots
  • Naruto 3.png (259.1 KB)
  • Naruto 5.png (257.1 KB)
  • Naruto 2.png (238.7 KB)
  • Naruto 6.png (198.4 KB)
  • Naruto 4.png (123.6 KB)
  • Naruto 1.png (120.7 KB)
  • Naruto 7.png (88.8 KB)


All The Episodes of Naruto Shippuden Season 1 (Ep 1-32) at 480p Video Quality :) Please seed after you . Cursator, u're the man. Pal I love your hardwork and I've downloaded all the Naruto seasons from you.

All The Episodes of Naruto Shippuden Season 1 (Ep 1-32) at 480p Video Quality :) Please seed after you download -. Info . Now I'm about to download seasons of Naruto Shippuden from you too, I'm sure to support you.

Xmovies8 - watch Ep 14 - Naruto's Growth Naruto: Shippuden - Season 1. .

Xmovies8 - watch Ep 14 - Naruto's Growth Naruto: Shippuden - Season 1 (2007) on xmovies8.

The second incarnation of the very popular NARUTO anime. It covers Part II of the manga storyline which takes place two years after Part I (which ends with the Sasuke Retrieval arc, episodes 107-135 of the first TV series). The anime chronology differs from the manga as the Shippuuden series happens two and a half years after the end of the first Naruto series.

Naruto Shippuden season 1 ep7. Related videos. 1,515 followers · TV season. 1,065 followers · Arts and entertainment. 2,278 followers · Fictional character. Diam - Diam Istriku dan Temanku Ada Main Di Dapur. 2,865,632 Views · 21 July. 2,735 followers · Art. Mitsuki. 2,414 followers · Film character.

You are going to Watch Naruto Shippuden Episode 1 English dubbed online free episodes with HQ, high quality. Stream Anime Naruto Shippuden Episode 1 Online English dub Homecoming.

Episode 32 Episode 31 Episode 30 Episode 29 Episode 28 Episode 27 Episode 26 Episode 25 Episode 24.

Episode 32 Episode 31 Episode 30 Episode 29 Episode 28 Episode 27 Episode 26 Episode 25 Episode 24 Episode 23 Episode 22 Episode 21 Episode 20 Episode 19 Episode 18 Episode 17 Episode 16 Episode 15 Episode 14 Episode 13 Episode 12 Episode 11 Episode 10 Episode 9 Episode 8 Episode 7 Episode 6 Episode 5 Episode 4 Episode 3 Episode 2 Episode.

All The Episodes of Naruto Shippuden Season 1 (Ep 1-32) at 480p Video Quality :)
Please seed after you download

Info
-
Video

Video
ID : 1
Format : AVC
Format/Info : Advanced Video Codec
Format profile : [email protected]
Format settings, CABAC : Yes
Format settings, ReFrames : 6 frames
Codec ID : avc1
Codec ID/Info : Advanced Video Coding
Duration : 46mn 39s
Bit rate : 192 Kbps
Maximum bit rate : 1 465 Kbps
Width : 640 pixels
Height : 480 pixels
Display aspect ratio : 4:3
Frame rate mode : Constant
Frame rate : 23.976 fps
Color space : YUV
Chroma subsampling : 4:2:0
Bit depth : 8 bits
Scan type : Progressive
Bits/(Pixel*Frame) : 0.026
Stream size : 64.1 MiB (59%)
Title : Imported with GPAC 0.4.6-DEV (build 1)
Writing library : x264 core 92 r1510 33d382a
Audio

ID : 2
Format : AAC
Format/Info : Advanced Audio Codec
Format profile : LC
Codec ID : 40
Duration : 46mn 39s
Bit rate mode : Variable
Bit rate : 128 Kbps
Maximum bit rate : 180 Kbps
Channel(s) : 2 channels
Channel positions : Front: L R
Sampling rate : 48.0 KHz
Compression mode : Lossy
Stream size : 42.7 MiB (40%)
Encoded date : UTC 2010-11-21 21:31:53
Tagged date : UTC 2010-11-21 21:31:53

Thank you for downloading.
Enjoy watching :)
And Please seed.


Request any anime you want at
_______________________________
[email protected]
___________________







Images:
http://img407.imageshack.us/img407/8565/naruto7.png|http://img23.imageshack.us/img23/7026/naruto6e.png|http://img651.imageshack.us/img651/8871/naruto5d.png|http://img708.imageshack.us/img708/8228/naruto4z.png|http://img196.imageshack.us/img196/4849/naruto3h.png|http://img507.imageshack.us/img507/2691/naruto2y.png|http://img577.imageshack.us/img577/2234/naruto1q.png

Related at Naruto Shippuden Season 1 480p :
Comments 2
Ylonean
seed please
Neol
Please Seed
© 2019 www.gphi.it | Contacts | DMCA | Privacy Policy