» » Naruto Shippuuden - 339 mkv 720p ENG-SUBBED GWC
Language: Japanese
Size: 85.9 MB
Rating: 4.5
Category: Anime
Votes: 224
Naruto Shippuuden - 339 mkv 720p ENG-SUBBED GWC
Files:
  • Naruto Shippuuden - 339 [720p] [ENG-SUBBED] [GWC].mkv (85.9 MB)


All categories Anime - Anime Music Video - English-translated - ed - Raw Audio - Lossless - Lossy Literature . Naruto Shippuuden - 339.

All categories Anime - Anime Music Video - English-translated - ed - Raw Audio - Lossless - Lossy Literature - English-translated - ed - Raw Live Action - English-translated - Idol/Promotional Video - ed - Raw Pictures - Graphics - Photos Software - Applications - Games. Category: Anime - ed.

Writing library : x264 core.

Online stream anime episodes, Watch Naruto Shippuuden Episode 1-2 English Subbed online and free . Please bookmark this domain and UNBLOCK on us ADBLOCK!!! We recieve too many complaints regarding to broken videos.

Online stream anime episodes, Watch Naruto Shippuuden Episode 1-2 English Subbed online and free episodes. If you are using an ADblock you probably won't be able to watch in HD and sometimes you will get errors like "No video with supported format and MIME type found". This is a bug of Adblock not our fault!! Please turn off your Adblocks to watch it without any trouble. Naruto Shippuuden Episode 1-2 English Subbed.

You can watch the Naruto and Naruto Shippuden Dubbed and Subbed Series free. Feel free to cancel before renewal to avoid charges or keep using if you like it and pay monthly subscription after month.

0 ('Isn't she lovely').

Stream Naruto: Shippuuden English Dubbed and Subbed online for free! . Naruto: Shippuuden Episode 339 English Sub. Naruto: Shippuuden Episode 338 English Sub. Naruto: Shippuuden Episode 337 English Sub.

com Naruto Shippuuden - 339 .mkv. to Naruto Shippuuden - 339 .mkv Anime Anime. org Naruto Shippuuden - 339 .mkv Video TV shows. com Naruto Shippuuden - 339 Anime. You cannot download any of those files from here.

Naruto Shippuuden 720p Eng Sub HEVC. English: Naruto: Shippuden. Synonyms: Naruto Hurricane Chronicles. Naruto Shippuuden 720p Eng Sub HEVC. Download Naruto Shippuuden 720p Eng Sub HEVC. By Darklord On Mar 30, 2019 Last updated Jun 23, 2019 10,980. It has been two and a half years since Naruto Uzumaki left Konohagakure, the Hidden Leaf Village, for intense training following events which fueled his desire to be stronger.

Naruto Shippuuden - 339 [720p] [ENG-SUBBED] [GWC]

Naruto Shippuden Ep 339 : I Will Love You Always!





FOLLOW ON FACEBOOK :





General
Format : Matroska
Format version : Version 4 / Version 2
File size : 85.9 MiB
Duration : 21mn 39s
Overall bit rate mode : Variable
Overall bit rate : 554 Kbps
Writing application : mkvmerge v6.5.0 ('Isn't she lovely')
Video
Format : AVC
Format profile : [email protected]
Format settings, CABAC : Yes
Format settings, ReFrames : 11 frames
Duration : 21mn 39s
Bit rate : 510 Kbps
Width : 1 280 pixels
Height : 720 pixels
Display aspect ratio : 16:9
Frame rate mode : Constant
Frame rate : 23.976 fps
Stream size : 75.5 MiB (88%)
Title : Naruto Shippuuden - 339 [720p] [ENG-SUBBED] [GWC]
Writing library : x264 core
Audio
Format : Vorbis
Duration : 21mn 39s
Bit rate mode : Variable
Channel(s) : 2 channels
Sampling rate : 44.1 KHz
Stream size : 8.68 MiB (10%)
Writing library : aoTuV
Text
Format : ASS
Codec ID/Info : Advanced Sub Station Alpha
Title : [GWC]
Language : English

Images:
http://img560.imageshack.us/img560/2224/narutogwccover.jpg|http://s20.postimg.org/l0qsjtqex/ailscreenscib.png|http://img163.imageshack.us/img163/8710/54100788659511547411.gif|http://img577.imageshack.us/img577/539/wisi.jpg|http://img163.imageshack.us/img163/8710/54100788659511547411.gif|http://s21.postimg.org/d7ezolr5j/facebook_logo.png|http://img651.imageshack.us/img651/8905/saythanks.gif|http://imageshack.us/a/img16/3442/ncax.gif|http://img651.imageshack.us/img651/8905/saythanks.gif|http://s20.postimg.org/yqc6oob95/MEDII.jpg

Related at Naruto Shippuuden - 339 mkv:
© 2019 www.gphi.it | Contacts | DMCA | Privacy Policy