» » Gundam Unicorn Complete - - BVz 720p HEVC x265 Eng Dub
Language: English
Size: 1.2 GB
Rating: 4.0
Category: Anime
Votes: 589
Gundam Unicorn Complete - - BVz 720p HEVC x265 Eng Dub
Files:
Links & Info
  • [MediaInfo] - Gundam Unicorn 01 - [720p x265] - BVz.mp4.txt (6.1 KB)
  • AnimeDB.url (0.1 KB)
  • App for Android Playback.url (0.2 KB)
  • App for iDevice Playback.url (0.1 KB)
  • BVz - Bromidic Releases.url (0.1 KB)
  • GundamUnicorn-Cover.jpg (465.9 KB)
  • GundamUnicorn-Snapshot(x265).jpg (432.8 KB)
  • GundamUnicorn-Thumnails(x265).jpg (2.7 MB)
  • GundamUnicorn-Wallpaper.jpg (891.1 KB)
  • HEVC - H.265.jpg (23.7 KB)
  • HEVC - H.265.jpg (519.9 KB)
  • IMDB.url (0.1 KB)
  • K-Lite Codec Pack [Win Only].url (0.1 KB)
  • More Anime - HEVC-x265 @KAT.url (0.2 KB)
  • My YouTube Channel.url (0.1 KB)
  • READ ME if FAILED Playback.txt (0.7 KB)
  • VLC Player [Win+Mac].url (0.1 KB)
  • Gundam Unicorn 01 - [720p x265] - BVz.mp4 (157.6 MB)
  • Gundam Unicorn 02 - [720p x265] - BVz.mp4 (145.2 MB)
  • Gundam Unicorn 03 - [720p x265] - BVz.mp4 (168.6 MB)
  • Gundam Unicorn 04 - [720p x265] - BVz.mp4 (149.8 MB)
  • Gundam Unicorn 05 - [720p x265] - BVz.mp4 (140.5 MB)
  • Gundam Unicorn 06 - [720p x265] - BVz.mp4 (142.3 MB)
  • Gundam Unicorn 07 - [720p x265] - BVz.mp4 (282.1 MB)


Gundam Unicorn Complete (Eng Dub) - - BV. lodoss tou senki record of lodoss war 720p x265 hevc. Fullmetal Alchemist BrotherHood.

Gundam Unicorn Complete (Eng Dub) - - BVz. Harry Potter and the Chamber of Secrets 2002 (1080p x265 10bit Joy). Harry Potter and the Deathly Hallows Part 1 (1080p x265 10bit Joy). Mad Max 1979 (1080p x265 Joy). Mad Max 2 1981 (1080p x265 Joy). Mad Max Beyond Thunderdome 1985 (1080p x265 Joy). Mr. Robot S01 Season 1 Complete 720p HDTV x265 AAC E-Subs. Paprika 2006 BDRip 720p Ita Jap Rus Ac3 x265-NAHOM.

Cowboy Bebop 01 - - BV. kv.

During his fierce battle with the Cyber-Newtype Marida, the Unicorn Gundam’s NT-D system activates, finally releasing its hidden power.

Thanks to an ECOAS sabotage operation and the firepower of the Nahel Argama’s hyper mega particle cannon, they succeed in sealing off Palau’s military port, and Banagher takes advantage of the confusion to escape with the Unicorn Gundam. During his escape he encounters Mineva, who is riding with Riddhe in the mobile suit Delta Plus. During his fierce battle with the Cyber-Newtype Marida, the Unicorn Gundam’s NT-D system activates, finally releasing its hidden power.

Packed with explosive action and rising tension, Mobile Suit Gundam Unicorn RE:0096 follows Banagher as his conviction is tested and the destiny that has laid dormant for more than a century is finally realized.

Complete Series 001-500) Naruto Shippuuden . .2001) Zeonic Front Kidou Senshi Gundam 0079 OVA del juego PS2 (640x360).

Pokémon (EP 0001-1001) Pocket Monsters . 7. 7 GB. 4. 16. 736. One Piece (Episodes 001-837) Seasons 01-19 . 18. 6 GB. 13. 42. 1053. Naruto Shippuden (Complete Series 001-500) Naruto Shippuuden . 5. 5 GB. 36. 59. 4174.

Please bookmark this domain and UNBLOCK on us ADBLOCK!!! We recieve too many complaints regarding to broken videos. If you are using an ADblock you probably won't be able to watch in HD and sometimes you will get errors like "No video with supported format and MIME type found". This is a bug of Adblock not our fault!! Please turn off your Adblocks to watch it without any trouble. Mobile Suit Gundam Unicorn RE:0096 Episode 21 English Dubbed. Watch full Mobile Suit Gundam Unicorn RE:0096 Episode 21 English Dubbed streaming online

hevc Money Heist x265 2019-07-20.

hevc Money Heist x265 2019-07-20. Select Category 1080p Movies 1080p TV Series 480p Movies 480p TV Series 720p Movies 720p TV Series Anime BluRay CAM Complete Season Packs DVDRip DVDScr Ebooks Extra Games HDRip Jay Silverman Movies Movies Trailer Music Oscar Movies 2019 PS4 Games Software Sports Top Feature Movies Tv Series WEB-DL WEBRip x265/HEVC.

NOTE: You must have a software decoder for H.265/x265.
I recommend installing K-Lite CodecPack Basic...

Simple, Easy, Effective.

NEXT Upload:

Mobile Suite Gundam 00

Don't Leech and Run... Share what is given.
In the Link & Info folder I added links to a codec pack which enables users to be able to playback this torrent

**************************************************************************************************


NOTE: I re-encoded from another encoded source. Just making that clear.
ReEnc By - BVz
In the Link & Info folder I added a shortcut to my youtube channel where I will upload tutorials on how I do what I share.
I will also be setting my (UploadPC) to take preference for [Encrypted Connections] and [IPV6]
so if you want to get in with the game make sure you use those preferences.

::AnimeDB::
::MediaInfo::
General
Complete name : Gundam Unicorn Complete (Eng Dub) - [720p HEVC x265] - BVzGundam Unicorn 01 - [720p x265] - BVz.mp4
Format : MPEG-4
Format profile : Base Media / Version 2
Codec ID : mp42
File size : 158 MiB
Duration : 57mn 57s
Overall bit rate mode : Variable
Overall bit rate : 380 Kbps
Movie name : Mobile Suit Gundam Unicorn
Genre : Anime
Recorded date : 2010
Writing application : HandBrake 0.10.1 2015030800
Comment : ReEncoded by - BVz
Video
ID : 1
Format : HEVC
Format/Info : High Efficiency Video Coding
Codec ID : hev1
Codec ID/Info : High Efficiency Video Coding
Duration : 57mn 57s
Bit rate : 319 Kbps
Width : 1 280 pixels
Height : 720 pixels
Display aspect ratio : 16:9
Frame rate mode : Variable
Frame rate : 23.976 fps
Minimum frame rate : 23.974 fps
Maximum frame rate : 23.981 fps
Color space : YUV
Chroma subsampling : 4:2:0
Bit depth : 8 bits
Bits/(Pixel*Frame) : 0.014
Stream size : 132 MiB (84%)
Writing library : x265 1.5:[Windows][GCC 4.9.0][64 bit]
Encoding settings : wpp / ctu=64 / tu-intra-depth=4 / tu-inter-depth=4 / me=3 / subme=2 / merange=60 / no-rect / no-amp / max-merge=4 / temporal-mvp / no-early-skip / no-fast-cbf / rdpenalty=0 / no-tskip / no-tskip-fast / strong-intra-smoothing / no-lossless / no-cu-lossless / no-constrained-intra / no-fast-intra / open-gop / interlace=0 / keyint=350 / min-keyint=24 / scenecut=40 / rc-lookahead=64 / bframes=10 / bframe-bias=0 / b-adapt=2 / ref=8 / weightp / no-weightb / aq-mode=1 / aq-strength=1.00 / cbqpoffs=0 / crqpoffs=0 / rd=6 / psy-rd=0.30 / psy-rdoq=1.00 / signhide / lft / sao / no-sao-non-deblock / b-pyramid / cutree / rc=crf / crf=29.0 / qcomp=0.60 / qpmin=0 / qpmax=51 / qpstep=4 / ipratio=1.40 / pbratio=1.30
Color primaries : BT.709
Transfer characteristics : BT.709
Matrix coefficients : BT.709
Color range : Limited
Audio
ID : 2
Format : AAC
Format/Info : Advanced Audio Codec
Format profile : HE-AACv2 / HE-AAC / LC
Codec ID : 40
Duration : 57mn 57s
Bit rate mode : Variable
Bit rate : 56.0 Kbps
Channel(s) : 2 channels / 2 channels / 2 channels
Channel positions : Front: L R / Front: L R / Front: L R
Sampling rate : 44.1 KHz / 44.1 KHz / 22.05 KHz
Compression mode : Lossy
Stream size : 23.2 MiB (15%)
Title : Stereo / Stereo

Images:
http://kickass.to/userwidget/BVz-Bromidic.png|http://blog.allstream.com/wp-content/uploads/2013/05/HEVC-Allstream-expertIP.jpg

Related at Gundam Unicorn Complete - - BVz:
© 2019 www.gphi.it | Contacts | DMCA | Privacy Policy