» » Btooom Complete Series 1080p x265 Eng Dub
Language: English
Size: 2.5 GB
Rating: 4.5
Category: Anime
Votes: 785
Btooom Complete Series 1080p x265 Eng Dub
Files:
BTOOOM! (Eng Dub)
  • [DigiMaza]-Btooom!.Episode.04.Best.in.the.World.mkv (273.2 MB)
  • [DigiMaza]-Btooom!.Episode.03.Survival.mkv (262.9 MB)
  • [DigiMaza]-Btooom!.Episode.07.Virtual.Bride.mkv (237.6 MB)
  • [DigiMaza]-Btooom!.Episode.09.The.Strongest.Player.mkv (236.5 MB)
  • [DigiMaza]-Btooom!.Episode.05.Attack.mkv (236.1 MB)
  • [DigiMaza]-Btooom!.Episode.12.Bonds.mkv (211.1 MB)
  • [DigiMaza]-Btooom!.Episode.11.Revival.mkv (207.3 MB)
  • [DigiMaza]-Btooom!.Episode.08.White.Ghost.mkv (203.4 MB)
  • [DigiMaza]-Btooom!.Episode.10.High.Level.mkv (193.1 MB)
  • [DigiMaza]-Btooom!.Episode.01.Start.mkv (189.5 MB)
  • [DigiMaza]-Btooom!.Episode.02.The.Bloodstained.High.School.Girl.mkv (180.5 MB)
  • [DigiMaza]-Btooom!.Episode.06.Night.of.Sacrifice.mkv (159.7 MB)
  • Read Me.txt (0.4 KB)


1080p Bluray HEVC Movies. 720p Bluray HEVC Movies.

Btooom! (2012) S01 : Mega K !MvOKYhMEGA;)UcIfQs3w4Rl8jt-A.

0 ('Slave To Your Mind') 64bitWriting library : libebml v. Btooom! (2012) S01 : Mega K !MvOKYhMEGA;)UcIfQs3w4Rl8jt-A.

Studio Ghibli MKV to English Dubbed MP4 Tutorial. Title(s): Btooom! Video: - MP4 Audio: English . channel AAC Subs: MODIFIED –. BTOOOM! 01-12 (720p/1080p Blu-ray eng dub 8bit AAC MP4). Posted on June 23, 2014 by Zack. Download: 720p4. 71GB BTOOOM! 01-12 (720p Blu-ray eng dub 8bit AAC MP4) BTOOOM! 01-12 (1080p Blu-ray eng dub 8bit AAC MP4).

You are going to Watch Btooom! Episode 5 English dubbed online free episodes with HQ, high quality. Stream Anime Btooom! Episode 5 Online English dub Attack. Ryōta returns to Kiyoshi with the case of food supplies. In a flashback, Ryōta's mother tried to commit suicide after regretting causing him to 'disappear. While Ryōta and Kiyoshi are eating, near the river a corpse washes downstream, which turns out to be a pants-less Mitsuo, leaving Ryōta and Kiyoshi to wonder what happened.

Btooom! (Dub) Episode 10. Light Off. Prev. DUB. Ep 26. Saiyuki Gunlock (Dub).

All categories Anime - Anime Music Video - English-translated - ed - Raw Audio - Lossless . BTOOOM! - 02 - The Bloody High School Girl .mkv (29. MiB).

All categories Anime - Anime Music Video - English-translated - ed - Raw Audio - Lossless - Lossy Literature - English-translated - ed - Raw Live Action - English-translated - Idol/Promotional Video - ed - Raw Pictures - Graphics - Photos Software - Applications - Games. BTOOOM! - 03 - Survival . BTOOOM! - 04 - Best in the World .

1080p BD Eng Dub Eng Sub x265. Anime Kaizoku is the best place to download anime series,anime games,anime movies,anime ova series and much more, providing you with the latest anime dose for free.

English (US) · Español · Português (Brasil) · Français (France) · Deutsch.

Btooom Complete Series (Eng Dub) 1080p x265 Download

Quote:

Btooom!, stylized as BTOOOM!, is a Japanese manga series written by Jun'ya Inoue and serialized in Weekly Comic Bunch and later in Monthly Comic Bunch. An anime adaptation by Madhouse aired in Japan on Tokyo MX and was streamed with English subtitles by Crunchyroll from October 4 to December 20, 2012. It has been licensed in North America by Sentai Filmworks.

..::File Specs::..
General
Format : Matroska
Format version : Version 4 / Version 2
File size : 263 MiB
Duration : 24 min 23 s
Overall bit rate : 1 508 kb/s
Video
ID : 1
Format : HEVC
Format/Info : High Efficiency Video Coding
Format profile : Main [email protected]@Main
Codec ID : V_MPEGH/ISO/HEVC
Duration : 24 min 22 s
Bit rate : 1 395 kb/s
Width : 1 920 pixels
Height : 1 080 pixels
Display aspect ratio : 16:9
Frame rate mode : Constant
Frame rate : 23.976 (24000/1001) FPS
Color space : YUV
Chroma subsampling : 4:2:0
Bit depth : 10 bits
Bits/(Pixel*Frame) : 0.028
Stream size : 243 MiB (93%)
Audio
ID : 2
Format : AAC
Format/Info : Advanced Audio Codec
Format profile : LC
Codec ID : A_AAC
Duration : 24 min 23 s
Bit rate : 98.8 kb/s
Channel(s) : 2 channels
Channel positions : Front: L R
Sampling rate : 48.0 kHz
Frame rate : 46.875 FPS (1024 spf)
Compression mode : Lossy
Delay relative to video : 9 ms
Stream size : 17.2 MiB (7%)
Language : English
Text #1
ID : 3
Format : VobSub
Muxing mode : zlib
Codec ID : S_VOBSUB
Codec ID/Info : Picture based subtitle format used on DVDs
Duration : 23 min 53 s
Bit rate : 548 b/s
Count of elements : 28
Stream size : 96.0 KiB (0%)
Title : English Signs/Song Retail
Language : English
..::ScreenShots::..
http://i.imgur.com/X1okHf0.jpg
http://i.imgur.com/6dnbAft.jpg
http://i.imgur.com/v5GPImm.jpg
================================================================
Seed Seed Seed Seed Seed Seed Seed Seed Seed Seed Seed Seed Seed
If You Like Our Work For You, Consider a BTC Donation.
1QDS1uDYov85ZdJeWyxYH4ttXoYvPEyaxe
================================================================

Images:
http://i.imgur.com/zBh30tR.jpg

Related at Btooom Complete Series 1080p x265:
© 2019 www.gphi.it | Contacts | DMCA | Privacy Policy