» » Lupin III Movie - Dead or Alive - Trappola mortale H264 ita Jpn Sub ita iCV-MIRCrew 1996
Language: Italian
Size: 1.4 GB
Rating: 4.3
Category: Anime
Votes: 338
Lupin III Movie - Dead or Alive - Trappola mortale H264 ita Jpn Sub ita iCV-MIRCrew 1996
Files:
Lupin III - Dead or Alive - Trappola mortale (1996).H264.ita.ita.jpn.sub.ita.iCV-MIRCrew
  • Lupin III Movie - Dead or Alive - Trappola mortale (1996).H264.ita.ita.jpn.sub.ita.iCV-MIRCrew.ita.srt (65.0 KB)
  • Lupin III Movie - Dead or Alive - Trappola mortale (1996).H264.ita.ita.jpn.sub.ita.iCV-MIRCrew.ita2.srt (65.0 KB)
  • Lupin III Movie - Dead or Alive - Trappola mortale (1996).H264.ita.ita.jpn.sub.ita.iCV-MIRCrew.mkv (1.4 GB)


org Encoded date : UTC 2017-08-20T12:39:18Z Writing application : mkvmerge v.

org Encoded date : UTC 2017-08-20T12:39:18Z Writing application : mkvmerge v. 0 ('Piper') built on. Mar 10 2012 13:34:39 Writing library : Lavf55.

Lupin III: Dead or Alive (ルパン三世 DEAD OR ALIVE Rupan Sansei: Deddo oa Araibu) is a 1996 Japanese animated film directed by Monkey Punch. In addition to being the fifth feature film in the Lupin III franchise, Dead or Alive was also the first Lupin production to make use of computer-generated animation in which it was cooperated by Celsys.

Animation, action, comedy. Director: Monkey Punch. Starring: Kanichi Kurita, Kyle Hebert, Caitlin Glass and others. Lupin and his friends travel to the country of Zufu (which resembles Iraq or Iran) and the objective is a treasure located on Drifting Island, which is guarded by an advance defense system that's years ahead of it's time. Which makes Lupin and his pals investigate on how to surpass the island's security. but our infamous thief must beware of Zufu's power hungry General Headhunter, the Zufu Police, bounty hunters, and Zenigata himself.

Lupin III Movie - Dead or Alive - Trappola mortale (1996). You cannot download any of those files from here

Lupin III Movie - Dead or Alive - Trappola mortale (1996). You cannot download any of those files from here. 獄学園 1s, hindi 2019 2s, fast and furious presents hobbs shaw 2019 1s, tagalog pambata 1s, disney classic cartoon 1s, the kings avatar anistar 2s, Girl-Next-Door Aussie Lucinda 2s, title: The All New Atom 8 2s, chimneypots 2s, BCM - Kenzie Reeves - Making Cheerleader Squeal Fo 2s. 04s.

Lupin III Movie - Dead or Alive - Trappola mortale (1996) H264 ita Jpn Sub ita iCV-MIRCrew Posted by robbyrs . 0. Lupin 3rd - Dead or alive, H264 - Ita Jap Ac3 - Softsub Ita TNT Village Posted by Markus03 in Anime Anime.

Lupin III Movie - Dead or Alive - Trappola mortale (1996) H264 ita Jpn Sub ita iCV-MIRCrew Posted by robbyrs in Anime Anime.

Internal name Lupin III - Dead or Alive - Trappola mortale (1996).

Другие названия: ルパン三世 DEAD OR ALIVE, Lupin III: Dead or Alive, Lupin Sansei Movie 06, Rupan Sansei: Dead Or Alive, Rupan Sansei: Dead or Alive.

After he finds the location, his first attempt at getting the treasure is unsuccessful, and he is chased out (along side with Jigen and Goemon) by traps all over the place. Другие названия: ルパン三世 DEAD OR ALIVE, Lupin III: Dead or Alive, Lupin Sansei Movie 06, Rupan Sansei: Dead Or Alive, Rupan Sansei: Dead or Alive.

Lupin III Movie - Dead or Alive - Trappola mortale .H264.ita.Jpn.Sub.ita.iCV-MIRCrew



NO FOUND ONLY ORIGINAL RELEASE


My release is always in double track audio italian and Original audio
for select it use VLC or dvd player home
not use wmp
Lupin III Movie - Dead or Alive - Trappola mortale



Titolo originale ルパン三世 DEAD OR ALIVE (Rupan Sansei: DEAD OR ALIVE)
Lingua originale giapponese
Paese di produzione Giappone
Anno 1996
Durata 97 min
Rapporto 16:9
Genere giallo
Regia Monkey Punch
Soggetto Monkey Punch
Sceneggiatura Hiroshi Kashiwabara
Casa di produzione TMS Entertainment
Distribuzione (Italia) Mediaset
Musiche Yūji Ōno, Takayuki Negishi
Character design Marisuke Eguch

Doppiatori originali
Kan'ichi Kurita: Arsenio Lupin III
Kiyoshi Kobayashi: Daisuke Jigen
Eiko Masuyama: Fujiko Mine
Makio Inoue: Goemon Ishikawa XIII
Gorō Naya: Koichi Zenigata
Minami Takayama: Ole
Tohru Furuya: Principe Panish
Banjou Ginga: Generale Cacciateste
Nachi Nozawa: Crisis
Shigeru Chiba: Spunky
Doppiatori italiani
Roberto Del Giudice: Arsenio Lupin III
Sandro Pellegrini: Daisuke Jigen
Alessandra Korompay: Fujiko Mine
Antonio Palumbo: Goemon Ishikawa XIII
Rodolfo Bianchi: Koichi Zenigata
Massimiliano Alto: Principe Panish
Saverio Moriones: Generale Cacciateste
Oliviero Dinelli: Crisis
Ambrogio Colombo: Spunky

Dopo aver salvato alcuni uomini rinchiusi in una prigione, il cui direttore aveva il sadico passatempo di dare la caccia ai detenuti cui permetteva di tentare la fuga, Lupin si reca in un piccolo Paese del Sud Est asiatico per mettere le mani sul tesoro dell'ultima famiglia reale, da poco spodestata da un colpo di Stato guidato dallo spietato e sinistro generale Cacciateste.

When Lupin heads to the kingdom of Zufu to pilfer its treasure, he incurs the wrath of its psychotic ruler General Headhunter, who places a dead-or-alive bounty on his head that many intend to collect.




[spoiler]
General
Unique ID : 199033107529751990014305140679053374554 (0x95BC61D5FF78E040BD8D127442B7745A)
Complete name : M:-1 lupin collection h264Lupin III - Dead or Alive - Trappola mortale .H264.ita.ita.jpn.sub.ita.iCV-MIRCrewLupin III Movie - Dead or Alive - Trappola mortale .H264.ita.ita.jpn.sub.ita.iCV-MIRCrew.mkv
Format : Matroska
Format version : Version 2
File size : 1.44 GiB
Duration : 1h 37mn
Overall bit rate : 2 129 Kbps
Movie name : www.icv-crew.org
Encoded date : UTC 2017-08-20T12:39:18Z
Writing application : mkvmerge v5.4.0 ('Piper') built on Mar 10 2012 13:34:39
Writing library : Lavf55.12.0
Video
ID : 1
Format : AVC
Format/Info : Advanced Video Codec
Format profile : [email protected]
Format settings, CABAC : Yes
Format settings, ReFrames : 4 frames
Muxing mode : Header stripping
Codec ID : V_MPEG4/ISO/AVC
Duration : 1h 37mn
Bit rate : 1 290 Kbps
Width : 720 pixels
Height : 404 pixels
Display aspect ratio : 16:9
Frame rate mode : Variable
Frame rate : 23.976 fps
Color space : YUV
Chroma subsampling : 4:2:0
Bit depth : 8 bits
Scan type : Progressive
Bits/(Pixel*Frame) : 0.185
Stream size : 871 MiB (59%)
Title : Lupin III Movie - Dead or Alive - Trappola mortale .H264.ita.ita.jpn.sub.ita.iCV-MIRCrew
Writing library : x264 core 142 r2479 dd79a61
Encoding settings : cabac=1 / ref=1 / deblock=1:1:1 / analyse=0x1:0x111 / me=hex / subme=2 / psy=1 / psy_rd=0.40:0.00 / mixed_ref=0 / me_range=16 / chroma_me=1 / trellis=0 / 8x8dct=0 / cqm=0 / deadzone=21,11 / fast_pskip=1 / chroma_qp_offset=0 / threads=12 / lookahead_threads=3 / sliced_threads=0 / nr=0 / decimate=1 / interlaced=0 / bluray_compat=0 / constrained_intra=0 / bframes=5 / b_pyramid=2 / b_adapt=1 / b_bias=0 / direct=1 / weightb=1 / open_gop=0 / weightp=1 / keyint=240 / keyint_min=24 / scenecut=40 / intra_refresh=0 / rc_lookahead=10 / rc=abr / mbtree=1 / bitrate=1290 / ratetol=1.0 / qcomp=0.60 / qpmin=0 / qpmax=69 / qpstep=4 / vbv_maxrate=20000 / vbv_bufsize=25000 / nal_hrd=none / filler=0 / ip_ratio=1.40 / aq=1:0.60
Language : Italian
Default : Yes
Forced : No
Color primaries : BT.709-5, BT.1361, IEC 61966-2-4, SMPTE RP177
Transfer characteristics : BT.709-5, BT.1361
Matrix coefficients : BT.709-5, BT.1361, IEC 61966-2-4 709, SMPTE RP177
Audio #1
ID : 2
Format : AC-3
Format/Info : Audio Coding 3
Mode extension : CM (complete main)
Muxing mode : Header stripping
Codec ID : A_AC3
Duration : 1h 37mn
Bit rate mode : Constant
Bit rate : 448 Kbps
Channel(s) : 6 channels
Channel positions : Front: L C R, Side: L R, LFE
Sampling rate : 48.0 KHz
Bit depth : 16 bits
Compression mode : Lossy
Delay relative to video : -5ms
Stream size : 311 MiB (21%)
Title : Surround
Language : Italian
Default : Yes
Forced : No
Audio #2
ID : 3
Format : AC-3
Format/Info : Audio Coding 3
Mode extension : CM (complete main)
Muxing mode : Header stripping
Codec ID : A_AC3
Duration : 1h 37mn
Bit rate mode : Constant
Bit rate : 192 Kbps
Channel(s) : 2 channels
Channel positions : Front: L R
Sampling rate : 48.0 KHz
Bit depth : 16 bits
Compression mode : Lossy
Delay relative to video : -5ms
Stream size : 133 MiB (9%)
Title : Stereo
Language : Italian
Default : No
Forced : No
Audio #3
ID : 4
Format : AC-3
Format/Info : Audio Coding 3
Mode extension : CM (complete main)
Muxing mode : Header stripping
Codec ID : A_AC3
Duration : 1h 37mn
Bit rate mode : Constant
Bit rate : 192 Kbps
Channel(s) : 2 channels
Channel positions : Front: L R
Sampling rate : 48.0 KHz
Bit depth : 16 bits
Compression mode : Lossy
Delay relative to video : -5ms
Stream size : 133 MiB (9%)
Title : Stereo
Language : Japanese
Default : No
Forced : No
Menu
00:00:00.000 : :Capoitolo 01
00:05:04.387 : :Capoitolo 02
00:11:51.168 : :Capoitolo 03
00:16:06.882 : :Capoitolo 04
00:23:59.479 : :Capoitolo 05
00:35:36.426 : :Capoitolo 06
00:46:28.577 : :Capoitolo 07
00:54:05.408 : :Capoitolo 08
00:57:57.891 : :Capoitolo 09
01:10:11.415 : :Capoitolo 10
01:18:14.272 : :Capoitolo 11
01:25:46.141 : :Capoitolo 12
01:33:56.881 : :Capoitolo 13
[/spoiler]

Images:
https://i.imgur.com/75p2Aol.png|https://s23.postimg.org/b9yhws27f/0sc_Del1.png|https://i.imgur.com/GDNQx1Z.png|https://worldimages.gallery/images/2017/10/12/w.png|https://www.userlogos.org/files/logos/Sucka/imdb_new.png|https://i.imgur.com/fGu1rKv.png|https://i.imgur.com/W7kBqiE.png|https://i.imgur.com/bFK3ggF.png|https://i.imgur.com/48xHWWH.png|https://i.imgur.com/K8bfNTy.png|https://worldimages.gallery/images/2017/10/12/vlcsnap-2017-10-12-14h54m29s806.png|https://worldimages.gallery/images/2017/10/12/vlcsnap-2017-10-12-14h53m30s303.th.png|https://worldimages.gallery/images/2017/10/12/vlcsnap-2017-10-12-14h54m05s844.th.png|https://worldimages.gallery/images/2017/10/12/vlcsnap-2017-10-12-14h54m14s508.th.png|https://worldimages.gallery/images/2017/10/12/vlcsnap-2017-10-12-14h54m25s507.th.png|https://i.imgur.com/aVrMohH.png

Related at Lupin III Movie - Dead or Alive - Trappola mortale H264 ita Jpn Sub ita iCV-MIRCrew:
© 2019 www.gphi.it | Contacts | DMCA | Privacy Policy