» » Blood+ Season 3 480p Cursator Blood Plus Ep 26-38
Language: Japanese
Size: 637.4 MB
Rating: 4.1
Category: Anime
Votes: 995
Blood+ Season 3 480p Cursator Blood Plus Ep 26-38
Files:
  • Blood+ Ep 31.mp4 (55.9 MB)
  • Blood+ Ep 30.mp4 (51.6 MB)
  • Blood+ Ep 36.mp4 (50.5 MB)
  • Blood+ Ep 32.mp4 (49.7 MB)
  • Blood+ Ep 27.mp4 (48.9 MB)
  • Blood+ Ep 29.mp4 (48.7 MB)
  • Blood+ Ep 33.mp4 (48.6 MB)
  • Blood+ Ep 37.mp4 (48.4 MB)
  • Blood+ Ep 28.mp4 (48.2 MB)
  • Blood+ Ep 38.mp4 (48.1 MB)
  • Blood+ Ep 34.mp4 (47.5 MB)
  • Blood+ Ep 26.mp4 (46.4 MB)
  • Blood+ Ep 35.mp4 (43.5 MB)
Screenshots
  • Blood+ 2.png (332.7 KB)
  • Blood+ 1.png (324.7 KB)
  • Blood+ 4.png (278.6 KB)
  • Blood+ 5.png (250.4 KB)
  • Blood+ 3.png (201.4 KB)


All the episode of Blood+ (Blood Plus) Season 3 (Ep 26-38) at 480p Video quality.

All the episode of Blood+ (Blood Plus) Season 3 (Ep 26-38) at 480p Video quality. Please seed after you download

All the episode of Blood+ (Blood Plus) Season 3 (Ep 26-38) at 480p Video quality. ID : 1 ID : 1 Format : AVC Format/Info : Advanced Video Codec Format profile : Format settings, CABAC : Yes Format settings, ReFrames : 16 frames Codec ID : avc1 Codec ID/Info : Advanced Video Coding Duration : 23mn 55s Bit rate mode : Variable Bit rate : 330 Kbps Maximum bit rate : 3 689 Kbps Width : 512 pixels Height : 384 pixels Display aspect ratio : 4

Blood+ Episode 26. Report.

Synonyms: Blood Plus . Tetra Tensei on Nanatsu no Taizai: Kamigami no Gekirin (Season 3)(Episode 11). Aquarion on Azur Lane the Animation (Episode 9). Andre Nugroho IX on Detective Conan (Episode 962).

Saya discovers her blood does not have the healing powers she had hoped for, disappointing her and angering Karman. Later, Kai and Saya meet unexpectedly at the Eiffel Tower as their thoughts center on Irene. Ranked worst to best! 2019's Most Anticipated. 63 movies coming up this year.

On Christina Island, news of Karl’s death has reached Diva and her Chevaliers. When James promises to protect Diva and kneels down to kiss her hand, he sees that she’s transformed back to her original body. Saya, meanwhile, is sitting at a dock staring at the ocean and thinking about what Solomon had said about her having companions. However, Saya still feels that she is by herself and tells Hagi that this is their fight

The third season of the television series True Blood premiered on June 13, 2010 simultaneously on HBO and HBO Canada.

The third season of the television series True Blood premiered on June 13, 2010 simultaneously on HBO and HBO Canada. It concluded its run on September 12, 2010 and contained 12 episodes, bringing the series total to 36. It loosely follows the plot of the third novel of The Southern Vampire Mysteries series, Club Dead.

Watch the video for Bloody Season from Blood's Impulse to Destroy for free, and see the artwork, lyrics and similar artists. Wednesday 26 June 2019. If you are looking for the Japanese band, please change your tags to BLOOD. At the moment there seems to be the problem that Last. 1. Thursday 27 June 2019.

All the episode of Blood+ (Blood Plus) Season 3 (Ep 26-38) at 480p Video quality.
Please seed after you download :)
-
Info
-
General

Format : MPEG-4
Format profile : Base Media
Codec ID : isom
File size : 62.5 MiB
Duration : 23mn 55s
Overall bit rate mode : Variable
Overall bit rate : 365 Kbps
Video

ID : 1
ID : 1
Format : AVC
Format/Info : Advanced Video Codec
Format profile : [email protected]
Format settings, CABAC : Yes
Format settings, ReFrames : 16 frames
Codec ID : avc1
Codec ID/Info : Advanced Video Coding
Duration : 23mn 55s
Bit rate mode : Variable
Bit rate : 330 Kbps
Maximum bit rate : 3 689 Kbps
Width : 512 pixels
Height : 384 pixels
Display aspect ratio : 4:3
Frame rate mode : Constant
Frame rate : 29.970 fps
Color space : YUV
Chroma subsampling : 4:2:0
Bit depth : 8 bits
Scan type : Progressive
Bits/(Pixel*Frame) : 0.056
Stream size : 56.5 MiB (90%)
Writing library : x264 core 60
Audio
-
ID : 2
Format : AAC
Format/Info : Advanced Audio Codec
Format profile : HE-AACv2 / HE-AAC / LC
Codec ID : 40
Duration : 23mn 55s
Bit rate mode : Variable
Bit rate : 32.2 Kbps
Maximum bit rate : 36.7 Kbps
Channel(s) : 2 channels / 1 channel / 1 channel
Channel positions : Front: L R / Front: C / Front: C
Sampling rate : 48.0 KHz / 48.0 KHz / 24.0 KHz
Compression mode : Lossy
Stream size : 5.52 MiB (9%)

Story

Under the care of her adoptive family, Saya Otonashi has been living the life of an anemic amnesiac, but otherwise ordinary schoolgirl. However, her happy life is shattered when she is attacked by a Chiropteran, learning that she is the only one who can defeat them. Armed with her katana, Saya embarks on a journey with her family, allies, and her chevalier, Haji, to rid the world of the Chiropteran threat and rediscover her identity. The course of the journey reveals the background history of the Chiropterans and Saya's very deep past, which extends into the mid-19th century.
The series is initially set in September 2005 Okinawa City (Koza), on Okinawa Island, near the US Kadena Air Base. In the course of the series, Saya visits locations across the world, fighting enemy chiropteran and searching for her origins.

Screenshots






-
Thank you for downloading.
Enjoy watching :)

And Request more anime at
__________________________
[email protected]
___________________

Images:
http://img202.imageshack.us/img202/7852/blood1b.png|http://img213.imageshack.us/img213/7387/blood2g.png|http://img15.imageshack.us/img15/7287/blood3k.png|http://img547.imageshack.us/img547/9110/blood4.png|http://img841.imageshack.us/img841/5333/blood5.png

Related at Blood+ Season 3 480p :
© 2019 www.gphi.it | Contacts | DMCA | Privacy Policy