» » Naruto Shippuden Season 10 English Dubbed 720p
Language: English
Size: 2.2 GB
Rating: 4.3
Category: Anime
Votes: 698
Naruto Shippuden Season 10 English Dubbed 720p
Files:
  • Naruto Shippuden - 209 - Danzo's Right Arm (1).mkv (100.4 MB)
  • Naruto Shippuden - 216 - High-Level Shinobi (1).mkv (94.5 MB)
  • Naruto Shippuden - 220 - Prophecy of the Great Lord Elder (1).mkv (93.8 MB)
  • Naruto Shippuden - 215 - Two Fates (1).mkv (93.8 MB)
  • Naruto Shippuden - 214 - The Burden (1).mkv (93.7 MB)
  • Naruto Shippuden - 205 - Declaration of War (1).mkv (93.6 MB)
  • Naruto Shippuden - 217 - The Infiltrator (1).mkv (93.6 MB)
  • Naruto Shippuden - 219 - Kakashi Hatake, the Hokage (1).mkv (93.6 MB)
  • Naruto Shippuden - 207 - The Tailed Beast vs. The Tailless Tailed Beast (1).mkv (93.5 MB)
  • Naruto Shippuden - 213 - Lost Bonds (1).mkv (93.5 MB)
  • Naruto Shippuden - 206 - Sakura’s Feelings (1).mkv (93.5 MB)
  • Naruto Shippuden - 211 - Danzo Shimura (1).mkv (93.4 MB)
  • Naruto Shippuden - 210 - The Forbidden Visual Jutsu (1).mkv (93.2 MB)
  • Naruto Shippuden - 212 - Sakura's Resolve (1).mkv (93.1 MB)
  • Naruto Shippuden - 221 - Storage (1).mkv (92.9 MB)
  • Naruto Shippuden - 204 - Power of the Five Kage (1).mkv (92.2 MB)
  • Naruto Shippuden - 218 - The Five Great Nations Mobilize (1).mkv (90.8 MB)
  • Naruto Shippuden - 208 - As One's Friend (1).mkv (89.7 MB)
  • Naruto Shippuden - 199 - Enter the Five Kage (1).mkv (89.3 MB)
  • Naruto Shippuden - 198 - Five Kage Summit's Eve (1).mkv (87.0 MB)
  • Naruto Shippuden - 200 - Naruto's Plea (1).mkv (86.9 MB)
  • Naruto Shippuden - 197 - The Sixth Hokage Danzo (1).mkv (86.7 MB)
  • Naruto Shippuden - 203 - Sasuke’s Ninja Way (1).mkv (81.1 MB)
  • Naruto Shippuden - 202 -Racing Lightning (1).mkv (75.3 MB)
  • Naruto Shippuden - 201 - Painful Decision (1).mkv (73.6 MB)
  • Naruto Shippuden Season 1-9 English Dubbed 480p.torrent (47.8 KB)
  • Read Me.txt (7.0 KB)


The Akatsuki leader gathers the other members, using an astral projection technique, and they begin a three-day long jutsu to extract the One-Tailed Shukaku from Gaara and seal it in a giant statue. Video Errors & Solutions. Attention : About %80 of broken-missing video reports we recieve are invalid so that we believe the problems are caused by you, your computer or something else.

Naruto Dubbed 10 The Forest of Chakra. Naruto Dubbed 10 The Forest of Chakra.

You can watch the Naruto and Naruto Shippuden Dubbed and Subbed Series free. Feel free to cancel before renewal to avoid charges or keep using if you like it and pay monthly subscription after month.

Tsuini gekitotsu٫٫٫ Naruto Shippuden Episode ۱۰ English Dub Full Screen ナルト疾風伝 ۱۰٫ The story revolves around an older and slightly more matured Uzumaki Naruto and his quest to save his friend Uchiha Sasuke from the grips of the snake-like Shinobi٬ Orochimaru٫ After ۲ and٫٫٫ Naruto.

You are currently watching Naruto Shippuden Episode 10 English Dubbed from the anime series Naruto Shippuden. You can watch more episodes of Naruto Shippuden English Dub or Sub here at Dubbed Anime for free! Previous. Dubbed Anime is an anime streaming video site where you can watch anime in English Dubbed & Subbed.

Naruto Shippuuden (Dub) Other name: Naruto Shippuden; Naruto: Shippuuden; Hurricane Chronicles; Naruto . Naruto Shippuden Season 8 Episode 17 The Fourth Hokageamberhaze marlon.

Naruto Shippuuden (Dub) Other name: Naruto Shippuden; Naruto: Shippuuden; Hurricane Chronicles; Naruto: Shippuden; ナルト- 疾風伝 Genres: Action,. ารค้นหาที่เกี่ยวข้องกับ Naruto shippuden episode 166 english dubbed hd 720p. naruto shippuden episode 166 english dubbed full screen hd 720p. Naruto Shippuden Episode 154 English Dubbed HD 720Pnetwork anime.

123movies Naruto Shippuden Season 10 free,Naruto Shippuden-Season 10 english subtitles,openload : Team Samui of the Hidden Cloud arrive at the Leaf Village and are shocked to find it in ruins. If the movie does not work, please try to stream it with another source under the video player.

Naruto Shippuden Dubbed. Pokemon Sun & Moon. Boruto Naruto Next Generations English dubbed. Vinland Saga English Subbed. The Rising Of The Shield Hero Subbed.

Naruto Shippuden Season 10 English Dubbed 720p {GPR} Download

The episodes from the tenth season of the anime series Naruto: Shippuden are based on Part II of the setting of Naruto manga series by Masashi Kishimoto. The episodes are directed by Hayato Date and produced by Studio Pierrot and TV Tokyo. Released in DVD under the name of The Gathering of the Five Kage (五影集結 Gokage shūketsu?), it follows the assemblance of the Kage, the five ninja leading their respective villages, as a result of the actions from the criminal organization Akatsuki as well as the rogue ninja Sasuke Uchiha who has been siding with them.
General
Format : Matroska
Format version : Version 4 / Version 2
File size : 93.6 MiB
Duration : 23mn 12s
Overall bit rate : 564 Kbps
Movie name : Naruto Shippuden Season 10
Video
ID : 2
Format : AVC
Format/Info : Advanced Video Codec
Format profile : [email protected]
Format settings, CABAC : Yes
Format settings, ReFrames : 8 frames
Codec ID : V_MPEG4/ISO/AVC
Duration : 23mn 12s
Bit rate : 500 Kbps
Width : 1 280 pixels
Height : 720 pixels
Display aspect ratio : 16:9
Frame rate mode : Constant
Frame rate : 23.976 fps
Color space : YUV
Chroma subsampling : 4:2:0
Bit depth : 8 bits
Scan type : Progressive
Bits/(Pixel*Frame) : 0.023
Stream size : 81.1 MiB (87%)
Writing library : x264 core 104 r1683 62997d6
Default : Yes
Forced : No
Audio
ID : 1
Format : MPEG Audio
Format version : Version 1
Format profile : Layer 3
Mode : Joint stereo
Mode extension : MS Stereo
Codec ID : A_MPEG/L3
Codec ID/Hint : MP3
Duration : 23mn 12s
Bit rate mode : Constant
Bit rate : 64.0 Kbps
Channel(s) : 2 channels
Sampling rate : 48.0 KHz
Compression mode : Lossy
Stream size : 10.6 MiB (11%)
Language : English
Default : Yes
Forced : No




Seed Atleast 2 Gb To Aid The Files For Future Downloads Also
If You Like Our Work For You, Appreciate Us By Writing A Comment

Images:
http://i.imgur.com/XKqzNWq.jpg|http://i.imgur.com/8fZz5Le.jpg|http://i.imgur.com/pXhd5gx.jpg|http://i.imgur.com/71R5lLv.png|http://i.imgur.com/1fje94Z.png

Related at Naruto Shippuden Season 10 English Dubbed 720p :
© 2019 www.gphi.it | Contacts | DMCA | Privacy Policy