» » Sword Art Online II - 18 mp4 Eng Subbed SD
Language: Japanese
Size: 50.3 MB
Rating: 4.9
Category: Anime
Votes: 704
Sword Art Online II - 18 mp4 Eng Subbed SD
Files:
  • [JRR] Sword Art Online II - 18 [Eng Subbed] [SD] [AnimeRG].mp4 (50.3 MB)


Sword Art Online II Episode 18. previous next. You are currently watching Sword Art Online II episode 18 in High Quality.

Sword Art Online II Episode 18. Support us by donating to keep the site up & running. We will always run free from pop ads and strive to provide the best streaming experience for everyone.

Sword Art Online English Subbed - 15 September 2018. Sword Art Online Episode 17 English Subbed. Sword Art Online Episode 19 English Subbed. Video Errors & Solutions. Attention : About %80 of broken-missing video reports we recieve are invalid so that we believe the problems are caused by you, your computer or something else.

However, his peace is short-lived as a new incident occurs in a game called Gun Gale Online, where a player by the name of Death Gun appears to be killing people in the real world by shooting them in-game. Approached by officials to assist in investigating the murders, Kazuto assumes his persona of Kirito once again and logs into Gun Gale Online, intent on stopping the killer. Once inside, Kirito meets Sinon, a highly skilled sniper afflicted by a traumatic past.

You are watching Sword Art Online II Episode 1. Watch more awesome english subbed Anime for free at AnimePill.

You are watching Sword Art Online II Episode 18. Episode 18 of the TV Anime Series Sword Art Online I. 1 thought on Sword Art Online II Episode 18 Subbed. April 5, 2016 at 10:56 am Reply.

You Are Watching Sword Art Online Episode 18 English Dubbed/Subbed for free in High Quality - Animehdpro. Download Sword Art Online Episode 18 English Subbed/Dubbed Encoded in High Quality.

All categories Anime - Anime Music Video - English-translated - ed - Raw Audio - Lossless - Lossy Literature - English-translated - ed - Raw Live Action.

All categories Anime - Anime Music Video - English-translated - ed - Raw Audio - Lossless - Lossy Literature - English-translated - ed - Raw Live Action - English-translated - Idol/Promotional Video - ed - Raw Pictures - Graphics - Photos Software - Applications - Games.

One year after the SAO incident, Kirito is approached by Seijiro Kikuoka from Japan's Ministry of Internal Affairs and . Then, a female sniper named Sinon who owns a gigantic "Hecate II" rifle extends Kirito a helping hand.

One year after the SAO incident, Kirito is approached by Seijiro Kikuoka from Japan's Ministry of Internal Affairs and Communications Department "VR Division" with a rather peculiar request. That was an investigation on the "Death Gun" incident that occurred in the gun and steel filled VRMMO called Gun Gale Online (GGO). With Sinon's help, Kirito decides to enter the "Bullet of Bullets," a large tournament to choose the most powerful gunner within the realm of GGO, in hopes to become the target of the "Death Gun" and make direct contact with the mysterious avatar.

Watch Naruto, Bleach, One Punch Man or any other Anime Online Streaming Free. You are watching Sword Art Online II Episode 18 Online at Animegg. All Episodes & Movies in Dubbed and Subbed, HD and iPhone and android mobile friendly. Select a mirror and stream Sword Art Online II Episode 18 Subbed & Dubbed in HD. High Quality Anime Online at Animegg.

General
Format : MPEG-4
Codec ID : isom
File size : 50.3 MiB
Duration : 23mn 40s
Overall bit rate mode : Variable
Overall bit rate : 297 Kbps
Video
Format : AVC
Format/Info : Advanced Video Codec
Format profile : [email protected]
Format settings, CABAC : Yes
Format settings, ReFrames : 4 frames
Codec ID : avc1
Codec ID/Info : Advanced Video Coding
Duration : 23mn 40s
Bit rate : 198 Kbps
Maximum bit rate : 1 726 Kbps
Width : 656 pixels
Height : 368 pixels
Display aspect ratio : 16:9
Original display aspect ratio : 16:9
Frame rate mode : Constant
Frame rate : 23.976 fps
Color space : YUV
Chroma subsampling : 4:2:0
Bit depth : 8 bits
Scan type : Progressive
Bits/(Pixel*Frame) : 0.034
Stream size : 33.5 MiB (67%)
Audio
Format : AAC
Format/Info : Advanced Audio Codec
Format profile : LC
Codec ID : 40
Duration : 23mn 40s
Bit rate mode : Variable
Bit rate : 96.0 Kbps
Maximum bit rate : 107 Kbps
Channel(s) : 2 channels
Channel positions : Front: L R
Sampling rate : 44.1 KHz
Compression mode : Lossy
Stream size : 16.3 MiB (32%)

Subtitles

Language : English
Source : Crunchyroll
Type : Hard Subbed



Images:
http://i.imgur.com/4fTfdVr.png|http://i.imgur.com/m5P2NpY.png|http://i.imgur.com/EvZMzUi.png

Related at Sword Art Online II - 18 mp4:
© 2019 www.gphi.it | Contacts | DMCA | Privacy Policy