» » The The Smurfs Season 1 Volume 2 DVDRip Xvid BigPerm LKRG
Language: English
Size: 1.4 GB
Rating: 4.1
Category: Anime
Votes: 489
The The Smurfs Season 1 Volume 2 DVDRip Xvid BigPerm LKRG
Files:
  • TSVol1S2_LKRG.avi (1.4 GB)
  • LKRG_NFO.nfo (10.6 KB)
  • downloaded from extratorrent.com.txt (0.2 KB)


Come and download the smurfs dvdrip absolutely for free. The The Smurfs Season 1 Volume 2 DVDRip Xvid BigPerm LKRG Posted by oziman in Anime Anime.

Come and download the smurfs dvdrip absolutely for free. 0. 1. The Smurfs 2011 DVDRip FileBox1 com Posted by russs in Anime Anime.

The Smurfs - Season 1, Volume 1 (DVD, 2-Disc Set) RARE op. Hanna Barbera The Smurfs Season 1 Volume 2 DVD 2 disc set NEW factory sealed.

Hanna Barbera The Smurfs Season 1 Volume 2 DVD 2 disc set NEW factory sealed.

The Smurfs Season 1 Volume 2. Smurf S1V2. Released on October 7, 2008.

The Smurfs (syndicated as Smurfs' Adventures) is an American-Belgian animated fantasy-comedy children's television series that aired on NBC from 12 September 1981, to 2 December 1989. Produced by Hanna-Barbera Productions, it is based on the Belgian comic series by the same name, created by Belgian cartoonist Peyo (who also served as story supervisor of this adaptation) and aired for 256 episodes with a total of 418 stories, excluding three cliffhanger episodes and seven specials.

Only three apples high and lost in the Big Apple, the Smurfs must find a way back to their world before Gargamel tracks them down.

This first season of the hit cartoon has the Smurfs confronting a baby dragon, finding an amulet that grants wishes .

This first season of the hit cartoon has the Smurfs confronting a baby dragon, finding an amulet that grants wishes and discovering a magical horn that puts listeners to sleep. Follow the exciting early adventures of Brainy, Jokey, Vanity, Grouchy, Handy, Smurfette, Papa Smurf and the rest of the gang as they try to live in peaceful harmony and avoid the dangerous traps of the evil Gargamel and his wicked cat Azrael. This first season of the hit cartoon has the Smurfs confronting a baby dragon, finding an amulet that grants wishes and discovering a magical horn that puts listeners to sleep. We don't have any crew added to this movie.

The Smurfs are a group of over 100 bluish, three-apple tall creatures who live in the mushroom homes of Smurf Village. They are led by 543-year-old Papa Smurf (who doesn't look a day over 530). Their lives would be perfect were it not for the villainous Gargamel, a wizard who spends his days trying to capture them to eat, turn into gold, or for some other evil reason. Gargamel's cat Azrael adds to the menace, always looking for a smurfalicious snack. The single-emotioned smurfs, including Brainy, Jokey, Vanity, Grouchy and Clumsy, and others, were later joined by Grandpa Smurf, five.

The Smurfs Season 1 Volume 2 is a two-disk DVD collection released by Warner Home Video in October 2008. It features 20 episodes from Season 1 of the Smurfs cartoon show and a bonus feature called "I Smurf The Smurfs"

The Smurfs Season 1 Volume 2 is a two-disk DVD collection released by Warner Home Video in October 2008. It features 20 episodes from Season 1 of the Smurfs cartoon show and a bonus feature called "I Smurf The Smurfs". The cover art uses Studio Peyo artwork instead of Hanna-Barbera artwork as in the WorldVision VHS tape collections.


The Smurfs: Season One, Volume Two
Disc 1 includes:
1. "The Magic Egg"
When a magic egg that grants wishes is found, the Smurfs tear themselves
apart in greed.
2. "Smurfette's Dancing Shoes"
Smurfette makes a deal with an imp to become a perfect dancer, not realizing
what's wanted in return.
3. "Supersmurf"
Brainy steals a spell from Papa Smurf to change himself into a superhero and
get the village's food supply back from Bigmouth.
4. "The Baby Smurf"
Disguised as a baby Smurf, Gargamel uses a special potion to petrify the Smurfs.
5. "The Fake Smurf"
Hogatha transforms herself into a Smurf, but her plans to destroy the others
repeatedly backfire.
6. "Paradise Smurfed"
Lazy dreams of a paradise where he never has to work, but it's not what he
initially expects.
7. "Sir Hefty"
A dragon terrorizes the village, and Hefty seeks the help of a knight
claiming to be Sir Lancelot.
8. "The Purple Smurf"
Lazy gets bitten by a purple fly and experiences both physical and mental
change that affects the rest of the Smurfs.
9. "Haunted Smurfs"
While searching for food for the winter, the Smurfs find themselves in a
seemingly haunted castle.
10. "Sideshow Smurf"
Smurfette and Clumsy get captured by a showman named Bombast who forces
them to perform.
NOTES
This is a 2 Disc Set but was only able to find Disc 1 of this Set of 2.
Enjoy and have a Smurfing Good Time :)
General:
Complete name : The Smurfs Vol.1Season2 Disc 1 2008 DVDRip Xvid BigPerm LKRGTSVol1S2_LKRG.avi
Format : AVI
Format/Info : Audio Video Interleave
Format profile : OpenDML
File size : 1.36 GiB
Duration : 2h 41mn
Overall bit rate : 1 208 Kbps
Video:
ID : 0
Format : MPEG-4 Visual
Format profile : Advanced [email protected]
Format settings, BVOP : Yes
Format settings, QPel : No
Format settings, GMC : No warppoints
Format settings, Matrix : Default (H.263)
Codec ID : XVID
Codec ID/Hint : XviD
Duration : 2h 41mn
Bit rate : 1 010 Kbps
Width : 720 pixels
Height : 540 pixels
Display aspect ratio : 4:3
Frame rate : 23.976 fps
Resolution : 8 bits
Colorimetry : 4:2:0
Scan type : Progressive
Bits/(Pixel*Frame) : 0.108
Stream size : 1.14 GiB (84%)
Writing library : XviD 1.2.1 (UTC 2008-12-04)
Audio:
ID : 1
Format : AC-3
Format/Info : Audio Coding 3
Codec ID : 2000
Duration : 2h 41mn
Bit rate mode : Constant
Bit rate : 192 Kbps
Channel(s) : 1 channel
Channel positions : Front: C
Sampling rate : 48.0 KHz
Resolution : 16 bits
Video delay : 42ms
Stream size : 221 MiB (16%)
Alignment : Split accross interleaves
Language : English





Images:
http://shup.com/Shup/391554/thesmurfscoverforw1ck.jpg|http://lookpic.com/d2/i2/3585/y3kvdIRJ.png|http://lookpic.com/d2/i2/567/ZeCYvfz.png|http://lookpic.com/d2/i2/1238/HYRiqwtX.png|http://lookpic.com/d2/i2/422/fetOJ68r.png|http://lookpic.com/d2/i2/13/tUJFwgEn.png|http://i26.tinypic.com/357j3h0.jpg

Related at The The Smurfs Season 1 Volume 2 DVDRip Xvid BigPerm LKRG:
© 2019 www.gphi.it | Contacts | DMCA | Privacy Policy