» » Naruto Shippuden Episode - 265 With English Subtitles Jazz_Singh
Language: Japanese
Size: 82.0 MB
Rating: 4.1
Category: Anime
Votes: 083
Naruto Shippuden Episode - 265 With English Subtitles Jazz_Singh
Files:
  • Naruto Shippuden Episode 265 With English Subtitles.flv (82.0 MB)


You are going to Watch Naruto Shippuden Episode 265 English subbed online free episodes with HQ, high quality. Not DUB or Japanese with No Subtitle. Please read !!! Before swear just think we are human like you and we might make mistake !!

You are going to Watch Naruto Shippuden Episode 265 English subbed online free episodes with HQ, high quality. Stream Anime Naruto Shippuden Episode 265 Online English. Please read !!! Before swear just think we are human like you and we might make mistake !!

Report An Error With This Video.

Select a mirror and stream Naruto Shippuden Episode 265 Subbed & Dubbed in HD. High Quality Anime Online at Animegg. Report An Error With This Video.

You are currently watching Naruto Shippuden Episode 265 English Dubbed from the anime series Naruto Shippuden. You can watch more episodes of Naruto Shippuden English Dub or Sub here at Dubbed Anime for free! Previous. Dubbed Anime is an anime streaming video site where you can watch anime in English Dubbed & Subbed.

Watch Streaming Anime Naruto Shippuden Episode 265 English Subbed online for Free in HD/High Quality. Our players are mobile (HTML5) friendly, responsive with ChromeCast support. You can use your mobile device without any trouble.

Home Naruto - Naruto English Dubbed - Naruto English Subbed - Naruto Ovas Naruto Shippuden - Naruto Shippuden . Naruto Shippuden - 265 - An Old Nemesis Returns .mp4.

Home Naruto - Naruto English Dubbed - Naruto English Subbed - Naruto Ovas Naruto Shippuden - Naruto Shippuden English Dubbed - Naruto Shippuden English Subbed - Naruto Shippuden Ovas Boruto Series - Boruto Series English Dubbed - Boruto Series English Subbed Naruto Spin-off - Spin-off English Dubbed - Spin-off English Subbed Movies - Naruto English Dubbed Movies - Naruto English Subbed Movies - Naruto Shippuden English Dubbed Movies - Naruto Shippuden English Subbed Movies.

Episode 265 (Current).

You are watching Naruto Shippuden Episode 265 Online at AnimeRam. Select one of our user submitted mirrors for Naruto Shippuden Episode 265 Subbed & Dubbed Streaming in High Quality.

Watch Naruto Shippuden Episode 265 English Dubbed online for Free.

You are watching from Naruto Shippuden the Anime series. Watch Naruto Shippuden only at dubhappytv. The best place to watch Naruto Shippuden Episode 265 English Dubbed video online in high quality. Chat Box. Ongoing Shows.

naruto shippuden episode 26. streaming naruto shippuden episode 265 sub indo.

naruto shippuden episode 265. naruto shippuden 265. Naruto eps 265 sun indo. Naruto shippuden eps 265. naruto eps 265. naruto shippuden eps 265 sub indo. naruto shippuden episode 265 sub indo. Naruto episode 265 sub indo. Naruto 265. download naruto episode 265 anoboy. Terdapat beberapa pilihan penyedia file pada kolom tersebut.

Naruto Shippuden Episode 265


Title:An Old Nemesis Returns
Release date :May 31, 2012
Audio language :Japanese
SubTitle language :English

General
Format : Flash Video
File size : 82.0 MiB
Duration : 23mn 9s
Overall bit rate : 495 Kbps
Tagged date : UTC 2012-05-31 11:42:59
Tagging application : inlet media FLVTool2 v1.0.6 - http://www.inlet-media.de/flvtool2
Video
Format : AVC
Format/Info : Advanced Video Codec
Format profile : [email protected]
Format settings, CABAC : Yes
Format settings, ReFrames : 4 frames
Codec ID : 7
Duration : 23mn 9s
Bit rate : 406 Kbps
Width : 848 pixels
Height : 472 pixels
Display aspect ratio : 16:9
Frame rate mode : Constant
Frame rate : 23.000 fps
Color space : YUV
Chroma subsampling : 4:2:0
Bit depth : 8 bits
Scan type : Progressive
Bits/(Pixel*Frame) : 0.044
Stream size : 67.7 MiB (83%)
Writing library : x264 core 118
Audio
Format : AAC
Format/Info : Advanced Audio Codec
Format profile : LC
Codec ID : 10
Duration : 23mn 9s
Bit rate : 80.4 Kbps
Channel(s) : 2 channels
Channel positions : Front: L R
Sampling rate : 44.1 KHz
Compression mode : Lossy
Delay relative to video : 84ms
Stream size : 13.9 MiB (17%)

Images:
http://i.imgur.com/jE103.png|http://i.imgur.com/yhadg.jpg|http://i.imgur.com/13YGx.jpg|http://i.imgur.com/SqTqu.png|http://i.imgur.com/QMSEu.gif|http://i.imgur.com/ctI4t.gif|http://i.imgur.com/beorv.png

Related at Naruto Shippuden Episode - 265 With English Subtitles :
© 2019 www.gphi.it | Contacts | DMCA | Privacy Policy