» » The World God Only Knows II 720p Cursator Ep 1-12
Language: Japanese
Size: 903.4 MB
Rating: 4.8
Category: Anime
Votes: 594
The World God Only Knows II 720p Cursator Ep 1-12
Files:
  • The World God Only Knows II Ep 12.mkv (95.0 MB)
  • The World God Only Knows II Ep 02.mkv (85.2 MB)
  • The World God Only Knows II Ep 08.mkv (81.2 MB)
  • The World God Only Knows II Ep 04.mkv (81.0 MB)
  • The World God Only Knows II Ep 03.mkv (72.3 MB)
  • The World God Only Knows II Ep 01.mkv (67.0 MB)
  • The World God Only Knows II Ep 09.mkv (65.8 MB)
  • The World God Only Knows II Ep 05.mkv (65.2 MB)
  • The World God Only Knows II Ep 10.mkv (62.5 MB)
  • The World God Only Knows II Ep 11.mkv (62.3 MB)
  • The World God Only Knows II Ep 07.mkv (60.0 MB)
  • The World God Only Knows II Ep 06.mkv (55.7 MB)
Opening and Endings
  • The World God Only Knows II OP.mkv (30.0 MB)
  • The World God Only Knows II ED 1.mkv (8.1 MB)
  • The World God Only Knows II ED 2.mkv (8.0 MB)
Screenshots
  • TWOGK6.png (813.3 KB)
  • TWOGK3.png (761.8 KB)
  • TWOGK4.png (598.6 KB)
  • TWOGK5.png (466.3 KB)
  • TWOGK1.png (450.9 KB)
  • TWOGK2.png (408.4 KB)
Cover
  • The World God Only Knows 2 [Cursator].jpg (556.6 KB)


All The Episodes of The World God Only Knows aka Kami Nomi zo Shiru Sekai (Ep 1-12) at 480p Video Quality :) Please seed after you download

All The Episodes of The World God Only Knows aka Kami Nomi zo Shiru Sekai (Ep 1-12) at 480p Video Quality :) Please seed after you download. ID : 1 Format : AVC Format/Info : Advanced Video Codec Format profile : Format settings, CABAC : Yes Format settings, ReFrames : 16 frames Codec ID : V MPEG4/ISO/AVC Duration : 20mn 35s Bit rate : 398 Kbps Width : 1 280 pixels Height : 720 pixels Display aspect ratio : 16:9 Frame rate mode : Constant Frame rate : 2. 76 fps Color space : YUV Chroma.

Server Vidstreaming Mp4Upload Xstreamcdn

Server Vidstreaming Mp4Upload Xstreamcdn. 1 - 12. The World God Only Knows Season 2. The World God Only Knows Season 2; Kami nomi zo Shiru Sekai II; The World God Only Knows II; Kami nomi zo Shiru Sekai 2; Kaminomi II; The World God Only Knows 2; 神のみぞ知るセカイ II. Date aired: 2011. Keima Katsuragi is an avid galge gamer known at his school as Otamega (a derogatory term combining the words Otaku and Megane) and on the internet a The Capturing God. One day he receives an e-mail offering him a contract to capture girls. He accepts thinking it’s a challenge and a demon from Hell named Elsee appears.

Title: The World God Only Knows S2 Status: Finished Airing Duration: 23 min. per e. Terima kasih telah download The World God Only Knows S2 Sub Indo Episode 01-12 End + 3 OVA BD di Maxnime. TV. Granbelm Sub Indo Episode 01-13 End.

Debris of the Sun Vo. 2 C. 16 When the Sun Goes Down Vo. 16.

12 C. 11 Mannequin Vo. 12 Unconditional Girlfriend Vo. 13 A ∙ I Vo. 14 Apollo Vo. 15 Debris of the Sun Vo. 5 The World a Lil' Devil Only Knows + Akari After Vo. 3 C. 17 Cue Vo. 3. C. 18 Scramble Formation Vo. 19 Look Back in Anger Vo. 20 Peace Vo. 21 Cast off Vo. 22 Confession 2/5 Vo. 22. 5 The World a Lil' Devil Only Knows Vo. 23 Project A Vo. 24 Loverary Vo. 25 An Autumn Tale of Six Boys.

Diamond no Ace: Act II Episode 36 English Subbed. My Teen Romantic Comedy SNAFU Episode 12 English Dubbed. Black Clover Episode 112 English Subbed. Z/X: Code Reunion Episode 9 English Subbed. Youkai Watch (2019) Episode 7 English Subbed. Youkai Watch (2019) Episode 6 English Subbed.

Synonyms: Kami nomi zo Shiru Sekai 2, Kaminomi II, The World God Only Knows 2. Japanese: 神のみぞ知るセカイ II. Information.

EP 12 7 years ago dubbed. EP 1 7 years ago dubbed. The World God Only Knows II. EP 11 7 years ago dubbed. EP 10 7 years ago dubbed. EP 9 7 years ago dubbed. EP 8 7 years ago dubbed. EP 7 7 years ago dubbed. EP 6 7 years ago dubbed. EP 5 7 years ago dubbed. EP 7 years ago dubbed. Dubbed Anime is an anime streaming video site where you can watch anime in English Dubbed & Subbed.

You will Watch The World God Only Knows II Episode 18 English Dubbed online for free episodes with HQ, high quality. Stream anime The World God Only Knows II Season 2 Episode 6 Flag. 0 10% Chance of Rain.

All The Episodes of The World God Only Knows aka Kami Nomi zo Shiru Sekai (Ep 1-12) at 480p Video Quality :)
Please seed after you download.
And I've put up a folder named Opening and Ending containing the opening and ending theme songs...you can download them first for the quality of the videos :)

Cover




-
Torrent Statistics


General

Format : Matroska
Format version : Version 2
File size : 67.0 MiB
Duration : 20mn 35s
Overall bit rate mode : Variable
Overall bit rate : 455 Kbps
Writing application : HandBrake 4907svn
Writing library : libmkv 0.6.5

-
ID : 1
Format : AVC
Format/Info : Advanced Video Codec
Format profile : [email protected]
Format settings, CABAC : Yes
Format settings, ReFrames : 16 frames
Codec ID : V_MPEG4/ISO/AVC
Duration : 20mn 35s
Bit rate : 398 Kbps
Width : 1 280 pixels
Height : 720 pixels
Display aspect ratio : 16:9
Frame rate mode : Constant
Frame rate : 23.976 fps
Color space : YUV
Chroma subsampling : 4:2:0
Bit depth : 8 bits
Scan type : Progressive
Bits/(Pixel*Frame) : 0.018
Stream size : 58.6 MiB (87%)
Writing library : x264 core 125
Language : English
Default : Yes
Forced : No
Color primaries : BT.709
Transfer characteristics : BT.709
Matrix coefficients : BT.709


ID : 2
Format : Vorbis
Format settings, Floor : 1
Codec ID : A_VORBIS
Duration : 20mn 35s
Bit rate mode : Variable
Bit rate : 48.0 Kbps
Channel(s) : 1 channel
Sampling rate : 48.0 KHz
Compression mode : Lossy
Stream size : 7.07 MiB (11%)
Writing library : aoTuV 20110424 (UTC 2011-04-24)
Language : Japanese
Default : Yes
Forced : No
Writing application : HandBrake










Story

Dating sim master Keima Katsuragi wants nothing more than to immerse himself in the 2D world, chasing digital girlfriends. But when the so-called "Capturing God" answers a mysterious email from an unknown sender, Keima finds himself chasing down real-life ladies in an attempt to help the peppy demon Elsie de Lute Irma capture "lost souls" escaped from the depths of hell. Now, lest the explosive collar around his neck detonate, Keima must convince various girls to fall in love with him in order to scare out the souls hiding in their hearts.

Thank you for downloading.
Enjoy Watching :)

Facebook


Find Me on Facebook :)
or
[email protected]

Images:
http://img28.imageshack.us/img28/6913/theworldgodonlyknows2cu.jpg|http://41.imagebam.com/download/uZsc2Vv9LdglWdCAEe9S-g/19196/191952191/info.png|http://torrent-stats.info/798f/f57f37ad.png|http://63.imagebam.com/download/uqoGGTUKGJxqviU6WrTzHQ/19196/191952197/video.png|http://70.imagebam.com/download/GmjNa7dCiX8el9sEMWqyVA/19196/191952207/audio.png|http://70.imagebam.com/download/7VGFyO2yIfW0R5Sixnu3jg/19196/191952214/screenshots.png|http://img87.imageshack.us/img87/8090/twogk1.png|http://img443.imageshack.us/img443/5980/twogk2.png|http://img856.imageshack.us/img856/6899/twogk3.png|http://img688.imageshack.us/img688/2271/twogk4.png|http://img705.imageshack.us/img705/2444/twogk5.png|http://img854.imageshack.us/img854/56/twogk6.png|http://webgeek.elletis.com/wp-content/uploads/facebook-music-nota.jpg

Related at The World God Only Knows II 720p :
© 2019 www.gphi.it | Contacts | DMCA | Privacy Policy