» » Resident Evil Damnation 720p hevc bluury 2012
Language: English
Size: 580.9 MB
Rating: 4.5
Category: Anime
Votes: 927
Resident Evil Damnation 720p hevc bluury 2012
Files:
  • Resident Evil Damnation (2012) 720p bluury.mkv (580.9 MB)
  • Resident Evil Damnation (2012) 720p bluury.mkv.torrent (11.9 KB)
  • Resident Evil Damnation (2012) 720p bluury.mkv_torrent.txt (0.1 KB)
  • ResidentEvilDamnation2012720pBluury.mkv_meta.sqlite (9.0 KB)
  • ResidentEvilDamnation2012720pBluury.mkv_meta.xml (0.9 KB)


Tags 2012 resident evil umbrella corporation zombie. Previous Resident Evil: Retribution (2012) BluRay 480p & 720p. Next Alvin and the Chipmunks (2007) BluRay 480p & 720p.

Tags 2012 resident evil umbrella corporation zombie. July 3, 2017 at 6:57 am. request versi x265 donk mi. lus RE : Degeneratio. iar lengkap koleksi an. eply.

Video Format : HEVC Format/Info : High Efficiency Video Coding Width : 1 280 pixels Height : 720 pixels Display aspect ratio : 16:9 Frame rate mode : Constant Frame rate : 2. 76 (24000/1001) FPS Color space : YUV Chroma subsampling : 4:2:0 Bit depth : 10 bits Default : Yes Forced : No. Audio Format : AAC Format/Info : Advanced Audio Codec Channel(s) : 6 channels Sampling rate : 4. kHz, 2. kHz Compression mode : Lossy Default : Yes Forced : No.

Resident Evil: Damnation isn't the greatest video game-based movie out in the wild, but considering that the genre really doesn't have an excess of exemplary movies under its belt, Damnation does rank, well, fairly damn high within that group. It's true to the source, entertaining, well-written, nicely acted, and satisfactorily animated

Anime Tosho Home Biohazard: Damnation 1, OVA . Resident.

Anime Tosho Home Biohazard: Damnation 1, OVA .

Previous Previous post: Resident Evil: Extinction (2007) 720p HEVC BrRip. Next Next post: Lights Out (2016) 720p HEVC WEB-DL.

Resident Evil: Damnation 720P Bluray - United States Special Agent Leon S. Kennedy sneaks into a small Eastern European country to verify rumors that Bio Organic . Kennedy sneaks into a small Eastern European country to verify rumors that Bio Organic Weapons (. s) are being used in war. Right after his infiltration, the . amp;& Torrent Arabic Subtitle With Multi Subtitles - WorldSrc. All Movies 720 or 1080 Bluray! - No ads when Watch! We Are humans and we may make mistakes, please report if there is an error.

Kbps Width : 1 280 pixels Height : 720 pixels Display aspect ratio : 16:9 Frame rate mode : Constant Frame rate : 2. 76 fps Color space : YUV Chroma subsampling : 4:2:0 Bit depth : 10 bits Scan type : Progressive Bits/(Pixel.

Resident Evil: Damnation 2012 Aka Title : Biohazard: Damnation Actor/Actress : Matthew Mercer, Dave .

Resident Evil: Damnation 2012 Aka Title : Biohazard: Damnation Actor/Actress : Matthew Mercer, Dave Wittenberg Format File.

Another fine encode by me hope you enjoy it,its webseeded so you may download the torrent file, and webseed may die soon , so you may wanna seed as much as you download
Screens





Media info

Code:

Video
ID : 1
Format : HEVC
Format/Info : High Efficiency Video Coding
Format profile : [email protected]@Main
Codec ID : V_MPEGH/ISO/HEVC
Duration : 1h 40mn
Bit rate : 651 Kbps
Width : 1 280 pixels
Height : 720 pixels
Display aspect ratio : 16:9
Frame rate mode : Constant
Frame rate : 23.976 (24000/1001) fps
Color space : YUV
Chroma subsampling : 4:2:0
Bit depth : 8 bits
Bits/(Pixel*Frame) : 0.029
Stream size : 466 MiB (80%)
Writing library : x265 1.9+5-20f14d78dbad:[Windows][MSVC 1900][64 bit] 8bit
Encoding settings : wpp / ctu=64 / min-cu-size=8 / max-tu-size=32 / tu-intra-depth=1 / tu-inter-depth=1 / me=1 / subme=2 / merange=57 / no-rect / no-amp / max-merge=2 / temporal-mvp / no-early-skip / rdpenalty=0 / no-tskip / no-tskip-fast / strong-intra-smoothing / no-lossless / no-cu-lossless / no-constrained-intra / no-fast-intra / open-gop / no-temporal-layers / interlace=0 / keyint=250 / min-keyint=23 / scenecut=40 / rc-lookahead=20 / lookahead-slices=4 / bframes=8 / bframe-bias=0 / b-adapt=2 / ref=4 / limit-refs=3 / limit-modes / weightp / no-weightb / aq-mode=1 / qg-size=64 / aq-strength=1.00 / cbqpoffs=0 / crqpoffs=0 / rd=3 / psy-rd=2.00 / rdoq-level=0 / psy-rdoq=0.00 / signhide / deblock=1:1 / sao / sao-non-deblock / b-pyramid / cutree / no-intra-refresh / rc=2 / pass / bitrate=650 / qcomp=0.60 / qpmin=0 / qpmax=51 / qpstep=4 / cplxblur=20.0 / qblur=0.5 / ipratio=1.40 / pbratio=1.30
Default : Yes
Forced : No
Color range : Limited
Color primaries : Generic film
Transfer characteristics : BT.2020
Matrix coefficients : BT.2020 constant
Audio
ID : 2
Format : Opus
Codec ID : A_OPUS
Duration : 1h 40mn
Bit rate : 159 Kbps
Channel(s) : 6 channels
Channel positions : Front: L C R, Rear: L R, LFE
Sampling rate : 48.0 KHz
Frame rate : 50.000 fps (960 spf)
Compression mode : Lossy
Stream size : 114 MiB (20%)
Language : English
Default : Yes
Forced : No
Images:
https://yuq.me/users/31/456/imnGTjJw9C.jpg|https://yuq.me/users/31/456/yuPn6wapBX.jpg|https://yuq.me/users/31/456/3S8APfkwvj.jpg

Related at Resident Evil Damnation 720p hevc bluury:
© 2019 www.gphi.it | Contacts | DMCA | Privacy Policy